<?xml version="1.0" standalone="no"?>
<!DOCTYPE svg PUBLIC "-//W3C//DTD SVG 1.1//EN" "http://www.w3.org/Graphics/SVG/1.1/DTD/svg11.dtd" >
<svg xmlns="http://www.w3.org/2000/svg" xmlns:xlink="http://www.w3.org/1999/xlink" version="1.1">
<metadata>
Created by FontForge 20170731 at Thu Apr 20 15:06:38 2023
 By Aleksey,,,
Copyright (c) Milos Mitrovic, 2016. All rights reserved.
</metadata>
<defs>
<font id="NoirPro-Regular" horiz-adv-x="1245" >
  <font-face 
    font-family="Noir Pro"
    font-weight="400"
    font-stretch="normal"
    units-per-em="2048"
    panose-1="0 0 5 0 0 0 0 0 0 0"
    ascent="1638"
    descent="-410"
    x-height="983"
    cap-height="1376"
    bbox="-311 -623 2245 2261"
    underline-thickness="102"
    underline-position="-307"
    unicode-range="U+0020-25CA"
  />
<missing-glyph horiz-adv-x="1081" 
d="M887 1638v-2162h-686v2162h686zM721 1493h-359v-72h142v-80h-144v-71h361v71h-143v80h143v72zM578 1214h-218v-225h361v74h-143v151zM504 1141v-78h-72v78h72zM721 932h-361v-72h144v-80h-144v-71h218v151h143v72zM721 801h-72v-142h-289v-73h361v215zM721 537h-217v-121
h74v51h71v-102h-217v172h-72v-244h361v244zM721 164h-361v-246h361v246zM649 92v-102h-217v102h217zM721 -131h-361v-72h152l-152 -100v-72h361v72h-221l151 100h70v72z" />
    <glyph glyph-name=".notdef" horiz-adv-x="1081" 
d="M887 1638v-2162h-686v2162h686zM721 1493h-359v-72h142v-80h-144v-71h361v71h-143v80h143v72zM578 1214h-218v-225h361v74h-143v151zM504 1141v-78h-72v78h72zM721 932h-361v-72h144v-80h-144v-71h218v151h143v72zM721 801h-72v-142h-289v-73h361v215zM721 537h-217v-121
h74v51h71v-102h-217v172h-72v-244h361v244zM721 164h-361v-246h361v246zM649 92v-102h-217v102h217zM721 -131h-361v-72h152l-152 -100v-72h361v72h-221l151 100h70v72z" />
    <glyph glyph-name=".null" horiz-adv-x="0" 
 />
    <glyph glyph-name="nonmarkingreturn" horiz-adv-x="682" 
 />
    <glyph glyph-name="space" unicode=" " horiz-adv-x="655" 
 />
    <glyph glyph-name="exclam" unicode="!" horiz-adv-x="589" 
d="M229 393l-65 983h262l-66 -983h-131zM295 -16q-62 0 -105 43t-43 104t43.5 104.5t104.5 43.5q63 0 105 -43t42 -105t-42 -104.5t-105 -42.5z" />
    <glyph glyph-name="quotedbl" unicode="&#x22;" horiz-adv-x="851" 
d="M295 950h-148l-32 426h213zM705 950h-148l-33 426h213z" />
    <glyph glyph-name="numbersign" unicode="#" horiz-adv-x="1409" 
d="M1294 852h-252l-59 -360h229v-132h-251l-60 -360h-147l61 360h-321l-60 -360h-153l63 360h-229v132h252l59 360h-229v131h252l65 393h148l-66 -393h322l65 393h147l-65 -393h229v-131zM836 492l59 360h-322l-59 -360h322z" />
    <glyph glyph-name="dollar" unicode="$" horiz-adv-x="1212" 
d="M1130 403q0 -170 -123.5 -285t-334.5 -132v-150h-99v148q-86 4 -166.5 26.5t-133 50t-98 61.5t-64 53t-29.5 32l98 176q87 -96 200 -149.5t234 -53.5q153 0 236.5 57.5t83.5 157.5q0 156 -313 211q-140 24 -237.5 61.5t-152.5 88t-78.5 108t-23.5 129.5q0 164 117 275
t327 123v149h99v-149q240 -16 397 -162l-94 -178q-149 145 -354 145q-141 0 -218 -51.5t-77 -143.5q0 -77 71.5 -121t239.5 -77q255 -49 374 -140.5t119 -259.5z" />
    <glyph glyph-name="percent" unicode="%" horiz-adv-x="1605" 
d="M412 803q-125 0 -211 85.5t-86 209.5q0 123 86.5 209t210.5 86q123 0 208 -86t85 -209q0 -124 -85 -209.5t-208 -85.5zM389 0h-131l959 1376h131zM410 934q66 0 114.5 49t48.5 115t-48.5 115t-114.5 49t-115 -49t-49 -115t49 -115t115 -49zM1198 -16q-125 0 -211 85.5
t-86 209.5q0 123 86.5 208.5t210.5 85.5q123 0 208 -85.5t85 -208.5q0 -124 -85 -209.5t-208 -85.5zM1196 115q66 0 115 49t49 115t-49 114.5t-115 48.5t-115 -48.5t-49 -114.5t49 -115t115 -49z" />
    <glyph glyph-name="ampersand" unicode="&#x26;" horiz-adv-x="1509" 
d="M1393 655l-312 -344l314 -311h-277l-166 170q-181 -186 -407 -186q-196 0 -313 109t-117 290q0 129 75 224t183 141q-83 79 -127.5 148.5t-44.5 152.5q0 66 26.5 126t77 109.5t134 79t188.5 29.5q186 0 295.5 -104.5t109.5 -252.5q0 -63 -23.5 -118t-58 -92.5t-81 -69
t-85 -49t-77.5 -29.5l237 -232l193 209h256zM569 813q133 47 200 100t67 125q0 68 -60.5 113t-159.5 45q-109 0 -164 -45t-55 -102q0 -35 22 -74t43.5 -61.5t61 -58.5t45.5 -42zM549 180q139 0 264 129l-299 301q-35 -14 -67 -33t-64.5 -47.5t-52 -68t-19.5 -84.5
q0 -90 63.5 -143.5t174.5 -53.5z" />
    <glyph glyph-name="quotesingle" unicode="'" horiz-adv-x="442" 
d="M295 950h-148l-32 426h213z" />
    <glyph glyph-name="parenleft" unicode="(" horiz-adv-x="622" 
d="M541 1483q-230 -366 -230 -860q0 -495 230 -861l-164 -90q-120 185 -191 434.5t-71 516.5t71 516t191 434z" />
    <glyph glyph-name="parenright" unicode=")" horiz-adv-x="622" 
d="M82 1483l164 90q120 -185 191 -434t71 -516t-71 -516.5t-191 -434.5l-164 90q229 365 229 861q0 495 -229 860z" />
    <glyph glyph-name="asterisk" unicode="*" horiz-adv-x="909" 
d="M518 1196l219 98l58 -141l-234 -78l158 -196l-119 -86l-145 204l-140 -204l-122 86l155 196l-233 78l57 141l219 -98l-10 246h147z" />
    <glyph glyph-name="plus" unicode="+" horiz-adv-x="983" 
d="M868 688v-131h-311v-311h-131v311h-311v131h311v311h131v-311h311z" />
    <glyph glyph-name="comma" unicode="," horiz-adv-x="540" 
d="M82 -229l98 458h246l-213 -458h-131z" />
    <glyph glyph-name="hyphen" unicode="-" horiz-adv-x="786" 
d="M672 459h-557v164h557v-164z" />
    <glyph glyph-name="period" unicode="." horiz-adv-x="524" 
d="M262 -16q-62 0 -104.5 43t-42.5 104q0 63 42.5 105.5t104.5 42.5q63 0 105.5 -42.5t42.5 -105.5q0 -62 -42.5 -104.5t-105.5 -42.5z" />
    <glyph glyph-name="slash" unicode="/" horiz-adv-x="1048" 
d="M279 -164h-164l655 1704h164z" />
    <glyph glyph-name="zero" unicode="0" 
d="M623 1393q147 0 264 -95t180 -255.5t63 -354.5t-63 -354t-180 -255t-264 -95q-149 0 -266 95t-179.5 255t-62.5 354t63 354.5t180 255.5t265 95zM623 180q85 0 156.5 68t113 185t41.5 255t-41.5 255t-113 185t-156.5 68t-156.5 -68t-113.5 -185t-42 -255t42 -255
t113.5 -185t156.5 -68z" />
    <glyph glyph-name="one" unicode="1" horiz-adv-x="753" 
d="M147 1262l426 147v-1409h-196v1155l-230 -74v181z" />
    <glyph glyph-name="two" unicode="2" 
d="M145 967q6 83 40 159t90.5 136t142.5 95.5t188 35.5q198 0 328.5 -124.5t130.5 -318.5q0 -54 -15.5 -107.5t-39 -99.5t-66 -102.5t-82.5 -102t-104 -112.5l-215 -229h587v-197h-1015l503 553q65 71 95.5 106.5t74 92.5t62 101.5t18.5 84.5q0 117 -72.5 187.5t-189.5 70.5
q-112 0 -182 -74.5t-78 -187.5z" />
    <glyph glyph-name="three" unicode="3" horiz-adv-x="1212" 
d="M901 727q80 -27 138.5 -113t58.5 -188q0 -64 -16.5 -125t-54 -119t-93 -101.5t-140 -70t-188.5 -26.5q-218 0 -347.5 120.5t-143.5 321.5l196 33q15 -126 88 -202.5t219 -76.5q131 0 207 66t76 164q0 49 -18 84.5t-48 57t-78 34t-98 16.5t-118 4v197q41 1 80 5.5t86 17.5
t81 33.5t57 56.5t23 83q0 76 -65 136.5t-185 60.5q-76 0 -129.5 -21.5t-83 -61.5t-43.5 -82t-20 -97l-197 33q15 186 143.5 306t317.5 120q114 0 205.5 -37t144.5 -94.5t81 -121t28 -124.5q0 -192 -164 -289z" />
    <glyph glyph-name="four" unicode="4" 
d="M967 426h163v-197h-163v-229h-197v229h-721l918 1180v-983zM770 426v455l-332 -455h332z" />
    <glyph glyph-name="five" unicode="5" horiz-adv-x="1212" 
d="M649 918q85 0 164.5 -30t143.5 -86t102.5 -143.5t38.5 -193.5q0 -139 -68.5 -250t-180.5 -171t-243 -60q-201 0 -340 124t-151 302l204 20q9 -100 89.5 -175t197.5 -75q120 0 207.5 81t87.5 198q0 116 -73.5 189t-190.5 73q-84 0 -165.5 -43t-125.5 -121h-201l123 819
h699v-196h-531l-53 -353q51 42 124.5 66.5t141.5 24.5z" />
    <glyph glyph-name="six" unicode="6" 
d="M662 963q137 0 245.5 -64.5t165.5 -169t57 -227.5q0 -229 -142.5 -373.5t-364.5 -144.5q-225 0 -366.5 145t-141.5 387q0 107 28 220.5t83.5 229t151 223.5t218.5 187h348q-8 -3 -21.5 -8t-55.5 -24.5t-83 -43t-97 -64t-104 -86.5t-97 -111t-83 -136q107 60 259 60z
M623 180q135 0 223 86t88 211q0 126 -84.5 207.5t-226.5 81.5q-136 0 -224 -82.5t-88 -206.5q0 -125 88.5 -211t223.5 -86z" />
    <glyph glyph-name="seven" unicode="7" horiz-adv-x="1114" 
d="M115 1376h983l-590 -1376h-229l507 1180h-671v196z" />
    <glyph glyph-name="eight" unicode="8" 
d="M944 756q90 -52 138 -138.5t48 -193.5q0 -195 -146.5 -317.5t-360.5 -122.5t-361 122.5t-147 317.5q0 106 47.5 192t136.5 140q-59 41 -89 108t-30 144q0 108 59 197t160.5 138.5t223.5 49.5q185 0 313.5 -110.5t128.5 -274.5q0 -76 -30.5 -142.5t-90.5 -109.5zM623 1196
q-102 0 -174 -53.5t-72 -126.5t72 -126.5t174 -53.5t173.5 53.5t71.5 126.5t-71.5 126.5t-173.5 53.5zM623 180q130 0 220.5 68.5t90.5 169.5t-90.5 169t-220.5 68t-221 -68.5t-91 -168.5q0 -101 91 -169.5t221 -68.5z" />
    <glyph glyph-name="nine" unicode="9" 
d="M584 414q-137 0 -246 64.5t-166 168.5t-57 227q0 229 143 374t365 145q225 0 366 -145.5t141 -387.5q0 -107 -28 -220.5t-83.5 -229t-151 -223.5t-218.5 -187h-348q8 3 21.5 8t55.5 24.5t83 43t97 64t104 86.5t97 111t83 136q-54 -30 -112 -44.5t-146 -14.5zM623 1196
q-135 0 -223.5 -86t-88.5 -211q0 -126 85 -207.5t227 -81.5q136 0 223.5 82.5t87.5 206.5q0 125 -88 211t-223 86z" />
    <glyph glyph-name="colon" unicode=":" horiz-adv-x="524" 
d="M262 705q-62 0 -104.5 42.5t-42.5 104.5q0 63 42.5 105t104.5 42q63 0 105.5 -42t42.5 -105q0 -62 -42.5 -104.5t-105.5 -42.5zM262 -16q-62 0 -104.5 43t-42.5 104q0 62 43 105t104 43q63 0 105.5 -43t42.5 -105t-42.5 -104.5t-105.5 -42.5z" />
    <glyph glyph-name="semicolon" unicode=";" horiz-adv-x="565" 
d="M303 705q-61 0 -104 42.5t-43 104.5q0 63 42.5 105t104.5 42q63 0 105.5 -42t42.5 -105q0 -62 -42.5 -104.5t-105.5 -42.5zM82 -229l98 458h246l-213 -458h-131z" />
    <glyph glyph-name="less" unicode="&#x3c;" horiz-adv-x="1081" 
d="M967 164l-852 393v131l852 393v-163l-656 -295l656 -295v-164z" />
    <glyph glyph-name="equal" unicode="=" horiz-adv-x="1048" 
d="M115 836h819v-131h-819v131zM115 541h819v-131h-819v131z" />
    <glyph glyph-name="greater" unicode="&#x3e;" horiz-adv-x="1081" 
d="M115 164v164l655 295l-655 295v163l852 -393v-131z" />
    <glyph glyph-name="question" unicode="?" horiz-adv-x="1081" 
d="M524 1393q90 0 165.5 -24t126 -63.5t85.5 -91t50.5 -106t15.5 -109.5q0 -103 -47.5 -178.5t-145.5 -156.5q-78 -64 -114 -127.5t-37 -143.5h-197q-3 77 26 163t99 159q23 24 70.5 66t74.5 68.5t50.5 67.5t23.5 82q0 85 -64.5 141t-179.5 56q-106 0 -180 -47t-117 -113
l-114 160q177 197 409 197zM524 279q63 0 105.5 -43t42.5 -105t-42.5 -104.5t-105.5 -42.5q-62 0 -104.5 43t-42.5 104q0 62 43 105t104 43z" />
    <glyph glyph-name="at" unicode="@" horiz-adv-x="2228" 
d="M2114 676q0 -109 -32.5 -207t-91.5 -173.5t-149.5 -120t-200.5 -44.5q-207 0 -288 182q-101 -145 -305 -145q-96 0 -176 36.5t-130.5 97.5t-75.5 141t-18 167q14 185 140.5 309.5t302.5 124.5q83 0 157.5 -37t104.5 -85l8 94h192l-47 -484q-8 -90 30.5 -147t129.5 -57
q29 0 59.5 9t66 33t63 61t45.5 100t18 143q0 203 -107.5 372.5t-288 266t-391.5 96.5q-167 0 -318.5 -64t-261.5 -173t-174.5 -261t-64.5 -321q0 -134 41.5 -258.5t117 -224.5t176 -175.5t225.5 -117t259 -43.5q188 -3 314 57l57 -184q-159 -70 -371 -70q-207 0 -395 80.5
t-323.5 216.5t-216 324t-80.5 395t80.5 395t216 324t323.5 216.5t395 80.5q192 0 373 -74.5t315 -199t215 -297.5t81 -359zM1321 608q3 34 -3 69.5t-22.5 70.5t-41.5 62.5t-65.5 44.5t-90.5 17q-99 0 -173 -75.5t-85 -184.5q-6 -64 14 -123.5t74.5 -102t132.5 -42.5
q110 0 180.5 76t79.5 188z" />
    <glyph glyph-name="A" unicode="A" horiz-adv-x="1343" 
d="M1114 0l-133 295h-619l-133 -295h-213l656 1409l655 -1409h-213zM453 492h438l-219 483z" />
    <glyph glyph-name="B" unicode="B" horiz-adv-x="1179" 
d="M868 739q59 -14 104 -47.5t72 -78.5t40.5 -95.5t13.5 -103.5q0 -182 -120 -298t-323 -116h-508v1376h412q226 0 349.5 -92t123.5 -268q0 -99 -47 -174.5t-117 -102.5zM344 1180v-344h246q246 0 246 172t-246 172h-246zM623 197q132 0 205 55t73 166t-73 166t-205 55h-279
v-442h279z" />
    <glyph glyph-name="C" unicode="C" horiz-adv-x="1310" 
d="M786 180q114 0 200 37t159 113l84 -185q-84 -77 -199 -119t-231 -42q-146 0 -278.5 55.5t-228.5 150t-153 225t-57 273.5t57 273.5t153 225t228.5 150.5t278.5 56q116 0 231 -41.5t199 -118.5l-84 -184q-73 74 -159 110.5t-200 36.5q-138 0 -255 -68t-184.5 -185
t-67.5 -255t67.5 -255t184.5 -185t255 -68z" />
    <glyph glyph-name="D" unicode="D" horiz-adv-x="1343" 
d="M559 1376q135 0 249 -35t197 -97.5t141.5 -148.5t87 -189t28.5 -218q0 -143 -47.5 -268t-135 -218.5t-222 -147.5t-298.5 -54h-412v1376h412zM610 197q198 0 326.5 142t128.5 349t-128.5 349.5t-326.5 142.5h-266v-983h266z" />
    <glyph glyph-name="E" unicode="E" horiz-adv-x="1048" 
d="M934 1180h-590v-394h492v-196h-492v-393h590v-197h-787v1376h787v-196z" />
    <glyph glyph-name="F" unicode="F" horiz-adv-x="1015" 
d="M344 0h-197v1376h787v-196h-590v-394h492v-196h-492v-590z" />
    <glyph glyph-name="G" unicode="G" horiz-adv-x="1540" 
d="M1454 752q4 -36 4 -64q0 -193 -86 -354t-240.5 -255.5t-345.5 -94.5q-143 0 -273.5 55.5t-225 150t-150 225t-55.5 273.5t55.5 273.5t150 225t225 150.5t273.5 56q203 0 360.5 -103.5t248.5 -281.5l-199 -58q-60 113 -167.5 179.5t-242.5 66.5q-138 0 -255 -68
t-184.5 -185t-67.5 -255t67.5 -255t184.5 -185t255 -68q182 0 305 105t158 272h-512v197z" />
    <glyph glyph-name="H" unicode="H" horiz-adv-x="1343" 
d="M999 1376h197v-1376h-197v590h-655v-590h-197v1376h197v-590h655v590z" />
    <glyph glyph-name="I" unicode="I" horiz-adv-x="491" 
d="M344 0h-197v1376h197v-1376z" />
    <glyph glyph-name="J" unicode="J" horiz-adv-x="950" 
d="M639 1376h197v-852q0 -270 -124.5 -405t-334.5 -135q-86 0 -171 38.5t-124 88.5l98 168q30 -43 82 -71t115 -28q133 0 197.5 87t64.5 241v868z" />
    <glyph glyph-name="K" unicode="K" horiz-adv-x="1212" 
d="M524 702l639 -702h-262l-557 606v-606h-197v1376h197v-606l524 606h262z" />
    <glyph glyph-name="L" unicode="L" horiz-adv-x="983" 
d="M344 197h557v-197h-754v1376h197v-1179z" />
    <glyph glyph-name="M" unicode="M" horiz-adv-x="1703" 
d="M852 -33l-438 848l-131 -815h-201l233 1409l537 -1040l537 1040l233 -1409h-201l-131 815z" />
    <glyph glyph-name="N" unicode="N" horiz-adv-x="1441" 
d="M1294 -33l-950 975v-942h-197v1409l951 -975v942h196v-1409z" />
    <glyph glyph-name="O" unicode="O" horiz-adv-x="1572" 
d="M786 1393q191 0 353.5 -94.5t257 -257t94.5 -353.5q0 -143 -56 -273.5t-150.5 -225t-225 -150t-273.5 -55.5t-273.5 55.5t-225 150t-150 225t-55.5 273.5t55.5 273.5t150 225t225 150.5t273.5 56zM786 180q212 0 360 148t148 360t-148 360t-360 148t-359.5 -148
t-147.5 -360t147.5 -360t359.5 -148z" />
    <glyph glyph-name="P" unicode="P" horiz-adv-x="1179" 
d="M573 1376q260 0 392.5 -118.5t132.5 -321.5q0 -199 -125 -330t-338 -131h-291v-475h-197v1376h426zM637 672q116 0 190 63t74 189q0 127 -79.5 191.5t-196.5 64.5h-281v-508h293z" />
    <glyph glyph-name="Q" unicode="Q" horiz-adv-x="1572" 
d="M1524 0h-246l-96 104q-178 -120 -396 -120q-143 0 -273.5 55.5t-225 150t-150 225t-55.5 273.5t55.5 273.5t150 225t225 150.5t273.5 56q191 0 353.5 -94.5t257 -257t94.5 -353.5q0 -132 -46 -252t-130 -213zM786 180q141 0 263 72l-246 272h229l148 -157
q114 136 114 321q0 212 -148 360t-360 148t-359.5 -148t-147.5 -360t147.5 -360t359.5 -148z" />
    <glyph glyph-name="R" unicode="R" horiz-adv-x="1212" 
d="M1130 0h-229l-342 475h-215v-475h-197v1376h426q260 0 392.5 -118.5t132.5 -321.5q0 -162 -85 -281.5t-237 -160.5zM344 1180v-508h293q116 0 190 63t74 189q0 128 -72.5 192t-187.5 64h-297z" />
    <glyph glyph-name="S" unicode="S" horiz-adv-x="1212" 
d="M637 803q255 -49 374 -140.5t119 -259.5q0 -184 -141.5 -301.5t-378.5 -117.5q-93 0 -180 21.5t-143.5 49.5t-105.5 63.5t-68.5 55t-30.5 33.5l98 176q87 -96 200 -149.5t234 -53.5q153 0 236.5 57.5t83.5 157.5q0 156 -313 211q-140 24 -237.5 61.5t-152.5 88t-78.5 108
t-23.5 129.5q0 174 131 287t365 113q35 0 72.5 -4t104 -18t137.5 -50.5t130 -91.5l-94 -178q-149 145 -354 145q-141 0 -218 -51.5t-77 -143.5q0 -77 71.5 -121t239.5 -77z" />
    <glyph glyph-name="T" unicode="T" horiz-adv-x="1081" 
d="M82 1376h917v-196h-360v-1180h-197v1180h-360v196z" />
    <glyph glyph-name="U" unicode="U" horiz-adv-x="1277" 
d="M967 1376h196v-770q0 -138 -31.5 -250.5t-95 -196t-164.5 -129.5t-233 -46q-135 0 -237 46t-164 130t-92.5 195.5t-30.5 250.5v770h196v-835q0 -162 87.5 -261.5t240.5 -99.5q152 0 240 99.5t88 261.5v835z" />
    <glyph glyph-name="V" unicode="V" horiz-adv-x="1277" 
d="M639 -33l-623 1409h213l410 -946l410 946h213z" />
    <glyph glyph-name="W" unicode="W" horiz-adv-x="1966" 
d="M1720 1376h213l-573 -1409l-377 951l-377 -951l-573 1409h213l360 -905l377 938l377 -938z" />
    <glyph glyph-name="X" unicode="X" horiz-adv-x="1343" 
d="M1294 0h-237l-385 555l-385 -555h-238l500 711l-467 665h235l355 -512l354 512h236l-467 -665z" />
    <glyph glyph-name="Y" unicode="Y" horiz-adv-x="1212" 
d="M975 1376h221l-491 -819v-557h-197v557l-492 819h222l368 -631z" />
    <glyph glyph-name="Z" unicode="Z" 
d="M1130 0h-1048l741 1180h-708v196h1048l-741 -1179h708v-197z" />
    <glyph glyph-name="bracketleft" unicode="[" horiz-adv-x="688" 
d="M344 1507v-1736h197v-197h-394v2130h394v-197h-197z" />
    <glyph glyph-name="backslash" unicode="\" horiz-adv-x="1048" 
d="M770 -164l-655 1704h164l655 -1704h-164z" />
    <glyph glyph-name="bracketright" unicode="]" horiz-adv-x="688" 
d="M344 1507h-197v197h394v-2130h-394v197h197v1736z" />
    <glyph glyph-name="asciicircum" unicode="^" horiz-adv-x="1114" 
d="M115 918l364 524h156l364 -524h-180l-262 393l-262 -393h-180z" />
    <glyph glyph-name="underscore" unicode="_" horiz-adv-x="1146" 
d="M1065 -229h-983v163h983v-163z" />
    <glyph glyph-name="grave" unicode="`" horiz-adv-x="1671" 
d="M983 1507h-131l-262 262h229z" />
    <glyph glyph-name="a" unicode="a" 
d="M901 983h197v-983h-197v143q-122 -159 -328 -159q-105 0 -197 40t-156.5 108.5t-101 162t-36.5 197.5q0 140 62 255.5t175.5 183.5t253.5 68q206 0 328 -159v143zM590 180q129 0 220 91.5t91 220.5t-91 220t-220 91t-220 -91t-91 -220t91 -220.5t220 -91.5z" />
    <glyph glyph-name="b" unicode="b" 
d="M344 1442v-602q122 159 328 159q140 0 253.5 -68t175.5 -183.5t62 -255.5q0 -104 -36.5 -197.5t-101 -162t-156.5 -108.5t-197 -40q-206 0 -328 159v-143h-197v1442h197zM655 180q129 0 220.5 91.5t91.5 220.5t-91.5 220t-220.5 91t-220 -91t-91 -220t91 -220.5
t220 -91.5z" />
    <glyph glyph-name="c" unicode="c" horiz-adv-x="1015" 
d="M82 492q0 141 62 255.5t182.5 183t279.5 68.5q205 0 328 -112l-84 -182q-101 98 -242 98q-136 0 -232.5 -91t-96.5 -218q0 -129 96.5 -221.5t232.5 -92.5q141 0 242 101l84 -185q-57 -54 -146 -83t-182 -29q-160 0 -281 69t-182 183t-61 256z" />
    <glyph glyph-name="d" unicode="d" 
d="M901 1442h197v-1442h-197v143q-122 -159 -328 -159q-105 0 -197 40t-156.5 108.5t-101 162t-36.5 197.5q0 140 62 255.5t175.5 183.5t253.5 68q206 0 328 -159v602zM590 180q129 0 220 91.5t91 220.5t-91 220t-220 91t-220 -91t-91 -220t91 -220.5t220 -91.5z" />
    <glyph glyph-name="e" unicode="e" horiz-adv-x="1114" 
d="M1032 487q0 -45 -6 -86h-743q22 -111 108.5 -166t210.5 -55q159 0 299 99l66 -177q-16 -13 -41 -29t-71.5 -38t-114.5 -36.5t-142 -14.5q-125 0 -225 40.5t-162.5 110.5t-95.5 161t-33 196q0 141 58.5 255.5t171 183t259.5 68.5q200 0 330.5 -139t130.5 -373zM283 582
h548q-2 38 -18 75.5t-47 71t-84 54t-119 20.5q-64 0 -118.5 -21t-88 -54t-52.5 -71t-21 -75z" />
    <glyph glyph-name="f" unicode="f" horiz-adv-x="753" 
d="M82 983h131v119q0 174 81.5 265t217.5 91q74 0 127 -33v-192q-45 29 -98 29q-131 0 -131 -166v-113h229v-197h-229v-786h-197v786h-131v197z" />
    <glyph glyph-name="g" unicode="g" 
d="M901 983h197v-922q0 -298 -141 -450t-384 -152q-247 0 -458 164l98 176q42 -33 68.5 -50.5t74.5 -43t101.5 -37.5t115.5 -12q155 0 241.5 98.5t86.5 278.5v110q-122 -159 -328 -159q-105 0 -197 40t-156.5 108.5t-101 162t-36.5 197.5q0 140 62 255.5t175.5 183.5
t253.5 68q206 0 328 -159v143zM590 180q129 0 220 91.5t91 220.5t-91 220t-220 91t-220 -91t-91 -220t91 -220.5t220 -91.5z" />
    <glyph glyph-name="h" unicode="h" horiz-adv-x="1146" 
d="M651 999q187 0 284 -115.5t97 -334.5v-549h-196v549q0 125 -50.5 189.5t-171.5 64.5q-46 0 -92.5 -18t-86.5 -50t-65.5 -83t-25.5 -111v-541h-197v1442h197v-574q113 131 307 131z" />
    <glyph glyph-name="i" unicode="i" horiz-adv-x="491" 
d="M246 1147q-62 0 -105 43t-43 104q0 62 43 105t105 43q61 0 104 -43t43 -105t-42.5 -104.5t-104.5 -42.5zM147 0v983h197v-983h-197z" />
    <glyph glyph-name="j" unicode="j" horiz-adv-x="491" 
d="M246 1147q-62 0 -105 43t-43 104q0 62 43 105t105 43q61 0 104 -43t43 -105t-42.5 -104.5t-104.5 -42.5zM147 -66v1049h197v-1020q0 -92 -14.5 -167t-35 -124.5t-54.5 -87.5t-62.5 -59t-70 -36t-65 -20t-58.5 -10l-50 181q48 10 83.5 27.5t66.5 50t47 86.5t16 130z" />
    <glyph glyph-name="k" unicode="k" horiz-adv-x="1048" 
d="M508 508l524 -508h-262l-426 418v-418h-197v1442h197v-860l393 401h262z" />
    <glyph glyph-name="l" unicode="l" horiz-adv-x="491" 
d="M147 1442h197v-1442h-197v1442z" />
    <glyph glyph-name="m" unicode="m" horiz-adv-x="1703" 
d="M1241 999q164 0 256 -117t92 -333v-549h-196v549q0 254 -189 254q-95 0 -166 -71t-71 -191v-541h-197v549q0 254 -188 254q-95 0 -166.5 -71t-71.5 -191v-541h-197v983h197v-115q27 31 46.5 49.5t52.5 40t76.5 31.5t98.5 10q193 0 283 -155q77 84 156 119.5t184 35.5z
" />
    <glyph glyph-name="n" unicode="n" horiz-adv-x="1146" 
d="M651 999q179 0 280 -110t101 -324v-565h-196v549q0 125 -50.5 189.5t-171.5 64.5q-46 0 -92.5 -18t-86.5 -50t-65.5 -83t-25.5 -111v-541h-197v983h197v-115q113 131 307 131z" />
    <glyph glyph-name="o" unicode="o" horiz-adv-x="1179" 
d="M590 999q138 0 255 -67.5t185 -184.5t68 -255t-68 -255t-185 -185t-255 -68t-255 68t-185 185t-68 255t68 255t185 184.5t255 67.5zM590 180q127 0 219 92t92 220t-91.5 219.5t-219.5 91.5t-219.5 -91.5t-91.5 -219.5t92 -220t219 -92z" />
    <glyph glyph-name="p" unicode="p" 
d="M672 999q140 0 253.5 -68t175.5 -183.5t62 -255.5q0 -104 -36.5 -197.5t-101 -162t-156.5 -108.5t-197 -40q-206 0 -328 159v-667h-197v1507h197v-143q122 159 328 159zM655 180q129 0 220.5 91.5t91.5 220.5t-91.5 220t-220.5 91t-220 -91t-91 -220t91 -220.5t220 -91.5
z" />
    <glyph glyph-name="q" unicode="q" 
d="M573 999q206 0 328 -159v143h197v-1507h-197v667q-122 -159 -328 -159q-105 0 -197 40t-156.5 108.5t-101 162t-36.5 197.5q0 140 62 255.5t175.5 183.5t253.5 68zM590 180q129 0 220 91.5t91 220.5t-91 220t-220 91t-220 -91t-91 -220t91 -220.5t220 -91.5z" />
    <glyph glyph-name="r" unicode="r" horiz-adv-x="819" 
d="M344 772q52 107 154 167t239 60v-215q-89 26 -180 -8q-101 -38 -157 -122.5t-56 -215.5v-438h-197v983h197v-211z" />
    <glyph glyph-name="s" unicode="s" horiz-adv-x="983" 
d="M543 606q104 -20 177 -52t111 -73.5t54 -83t16 -90.5q0 -149 -102 -236t-291 -87q-143 0 -260.5 47t-165.5 92l78 192q57 -57 156.5 -95t185.5 -40q92 -1 147.5 29t55.5 76q0 52 -46.5 79t-146.5 46q-158 28 -246 71.5t-119.5 98.5t-31.5 139q0 124 109.5 202t289.5 78
q182 0 356 -94l-67 -184q-39 28 -122 54.5t-167 27.5q-52 1 -95.5 -6t-75.5 -27.5t-32 -52.5q0 -12 3.5 -22.5t13 -19t18 -15t25 -12.5t28 -10.5t34 -9.5t34.5 -7.5t38 -7.5t38 -7z" />
    <glyph glyph-name="t" unicode="t" horiz-adv-x="720" 
d="M213 322v464h-131v197h131v393h197v-393h196v-197h-196v-409q0 -47 1.5 -71.5t10.5 -54.5t27 -44q61 -45 157 4v-199q-60 -28 -145 -28q-68 0 -117 26t-77 73t-41 106t-13 133z" />
    <glyph glyph-name="u" unicode="u" horiz-adv-x="1146" 
d="M496 -16q-179 0 -280 110t-101 324v565h196v-549q0 -126 50.5 -190t170.5 -64q62 0 123 29.5t104.5 91.5t43.5 141v541h196v-983h-196v115q-113 -131 -307 -131z" />
    <glyph glyph-name="v" unicode="v" horiz-adv-x="983" 
d="M492 -33l-476 1016h213l263 -573l262 573h213z" />
    <glyph glyph-name="w" unicode="w" horiz-adv-x="1540" 
d="M1294 983h213l-426 -1016l-311 631l-311 -631l-426 1016h213l229 -586l295 619l295 -619z" />
    <glyph glyph-name="x" unicode="x" horiz-adv-x="1081" 
d="M657 522l375 -522h-233l-258 371l-258 -371h-234l375 522l-344 461h233l228 -324l227 324h233z" />
    <glyph glyph-name="y" unicode="y" horiz-adv-x="1048" 
d="M813 983h219l-665 -1507h-215l262 587l-398 920h220l288 -680z" />
    <glyph glyph-name="z" unicode="z" horiz-adv-x="983" 
d="M868 0h-786l483 786h-450v197h786l-487 -786h454v-197z" />
    <glyph glyph-name="braceleft" unicode="{" horiz-adv-x="786" 
d="M508 -61q0 -79 41 -139t123 -79l-66 -180q-154 51 -224.5 144t-70.5 229v479q0 81 -65 146.5t-131 83.5q67 18 131.5 83t64.5 146v479q0 136 70.5 229t224.5 144l66 -180q-82 -19 -123 -78.5t-41 -138.5v-385q0 -240 -137 -299q137 -59 137 -299v-385z" />
    <glyph glyph-name="bar" unicode="|" horiz-adv-x="425" 
d="M279 -524h-132v2097h132v-2097z" />
    <glyph glyph-name="braceright" unicode="}" horiz-adv-x="786" 
d="M279 -61v385q0 240 137 299q-137 59 -137 299v385q0 79 -41 138.5t-123 78.5l65 180q154 -51 224.5 -144t70.5 -229v-479q0 -81 65 -146t132 -83q-67 -18 -132 -83.5t-65 -146.5v-479q0 -136 -70.5 -229t-224.5 -144l-65 180q82 19 123 79t41 139z" />
    <glyph glyph-name="asciitilde" unicode="~" horiz-adv-x="1064" 
d="M827 698l123 -59q-26 -48 -55.5 -80t-63 -47.5t-64 -21t-69.5 -5.5q-24 0 -59 8t-60.5 16.5t-65 23t-50.5 18.5q-81 32 -136 18t-89 -84l-123 60q50 91 110 122t142 31q23 0 58 -8.5t61 -17t65.5 -23t50.5 -18.5q81 -32 136 -17.5t89 84.5z" />
    <glyph glyph-name="exclamdown" unicode="&#xa1;" horiz-adv-x="589" 
d="M295 999q63 0 105 -42.5t42 -104.5t-42 -104.5t-105 -42.5q-62 0 -105 43t-43 104t43 104t105 43zM229 590h131l66 -983h-262z" />
    <glyph glyph-name="cent" unicode="&#xa2;" horiz-adv-x="1015" 
d="M850 281l84 -185q-104 -98 -295 -112v-148h-98v152q-213 20 -336 161t-123 343q0 201 124 342t335 161v152h98v-148q185 -10 295 -112l-84 -182q-101 98 -242 98q-136 0 -232.5 -91t-96.5 -218q0 -129 96.5 -221.5t232.5 -92.5q141 0 242 101z" />
    <glyph glyph-name="sterling" unicode="&#xa3;" horiz-adv-x="1212" 
d="M967 311l163 -94q-40 -84 -104 -138.5t-122.5 -74.5t-117.5 -20q-18 0 -34 1t-27 2t-26 4.5t-21 4.5t-22 7.5t-19.5 7.5t-23.5 10t-23 10q-215 93 -295 -31l-213 229q21 59 94 115q41 31 64.5 66.5t29 75t4.5 67.5t-8 70h-184v131h147q-49 145 -49 245q0 75 31 145.5
t88 126t146 89t196 33.5q129 0 229 -37t199 -127l-102 -164q-134 131 -308 131q-55 0 -102.5 -12.5t-89 -40t-66 -76.5t-24.5 -115q0 -39 23.5 -115t25.5 -83h344v-131h-311q11 -40 9 -92t-12.5 -102t-44 -102t-85.5 -91q77 21 150.5 15t119 -21.5t99.5 -32.5t91 -17
q47 0 98 32t83 99z" />
    <glyph glyph-name="currency" unicode="&#xa4;" horiz-adv-x="1044" 
d="M817 655q0 -92 -49 -163l162 -160l-80 -84l-164 160q-73 -48 -162 -48q-94 0 -168 52l-161 -164l-80 82l159 164q-47 71 -47 161q0 91 49 162l-161 166l84 80l159 -162q74 49 166 49q93 0 166 -51l156 164l84 -80l-162 -164q49 -74 49 -164zM522 819q-66 0 -115 -49
t-49 -115t49 -114.5t115 -48.5t115 48.5t49 114.5t-49 115t-115 49z" />
    <glyph glyph-name="yen" unicode="&#xa5;" horiz-adv-x="1343" 
d="M1262 1376l-492 -819h229v-98h-229v-131h229v-99h-229v-229h-197v229h-229v99h229v131h-229v98h229l-491 819h221l369 -631l368 631h222z" />
    <glyph glyph-name="brokenbar" unicode="&#xa6;" horiz-adv-x="425" 
d="M279 852h-132v721h132v-721zM279 -524h-132v721h132v-721z" />
    <glyph glyph-name="section" unicode="&#xa7;" horiz-adv-x="1277" 
d="M1053 328q110 -91 110 -252q0 -184 -141.5 -302t-378.5 -118q-93 0 -180 21.5t-143.5 49.5t-105.5 63.5t-68.5 55t-30.5 33.5l98 176q87 -96 200 -149t234 -53q153 0 236.5 57.5t83.5 157.5q0 156 -314 211q-140 24 -237.5 61.5t-152 88t-78 108t-23.5 129.5
q0 166 117 274q-117 93 -117 250q0 174 130.5 286.5t364.5 112.5q35 0 73 -4t104.5 -18t137.5 -50.5t130 -91.5l-94 -178q-150 146 -355 146q-141 0 -218 -51.5t-77 -143.5q0 -77 72 -121.5t240 -77.5q255 -49 374 -140t119 -259q0 -162 -110 -272zM358 674q0 -77 72 -121.5
t240 -77.5q111 -20 198 -51q99 61 99 168q0 156 -314 211q-75 12 -170 39q-125 -47 -125 -168z" />
    <glyph glyph-name="dieresis" unicode="&#xa8;" horiz-adv-x="1671" 
d="M655 1507q-47 0 -80.5 34t-33.5 81q0 49 33 82t81 33q49 0 82 -32.5t33 -82.5q0 -48 -33 -81.5t-82 -33.5zM1016 1507q-47 0 -81 34t-34 81q0 49 33.5 82t81.5 33q49 0 81.5 -32.5t32.5 -82.5q0 -48 -32.5 -81.5t-81.5 -33.5z" />
    <glyph glyph-name="copyright" unicode="&#xa9;" horiz-adv-x="1425" 
d="M713 303q-166 0 -303.5 80t-216 217.5t-78.5 300.5q0 253 172.5 425.5t425.5 172.5t425.5 -172.5t172.5 -425.5t-172.5 -425.5t-425.5 -172.5zM713 393q212 0 360 148t148 360t-148 360t-360 148t-360 -148t-148 -360t148 -360t360 -148zM739 678q99 0 158 65l39 -81
q-37 -34 -88.5 -53t-102.5 -19q-132 0 -224.5 91t-92.5 220t92.5 220t224.5 91q113 0 191 -69l-39 -82q-60 63 -158 63q-92 0 -157.5 -65.5t-65.5 -157.5t65.5 -157.5t157.5 -65.5z" />
    <glyph glyph-name="ordfeminine" unicode="&#xaa;" horiz-adv-x="737" 
d="M524 1376h99v-491h-99v71q-60 -79 -164 -79q-106 0 -175.5 73.5t-69.5 179.5q0 107 69.5 180.5t175.5 73.5t164 -79v71zM369 975q65 0 110 45.5t45 109.5q0 65 -45.5 110.5t-109.5 45.5q-65 0 -110.5 -46t-45.5 -110t45.5 -109.5t110.5 -45.5z" />
    <glyph glyph-name="guillemotleft" unicode="&#xab;" horiz-adv-x="1277" 
d="M623 983l-328 -442l328 -443h-181l-327 443l327 442h181zM1098 983l-328 -442l328 -443h-180l-328 443l328 442h180z" />
    <glyph glyph-name="logicalnot" unicode="&#xac;" 
d="M1130 688v-459h-131v328h-884v131h1015z" />
    <glyph glyph-name="registered" unicode="&#xae;" horiz-adv-x="1425" 
d="M713 303q-166 0 -303.5 80t-216 217.5t-78.5 300.5q0 253 172.5 425.5t425.5 172.5t425.5 -172.5t172.5 -425.5t-172.5 -425.5t-425.5 -172.5zM713 393q212 0 360 148t148 360t-148 360t-360 148t-360 -148t-148 -360t148 -360t360 -148zM952 594h-102l-152 213h-96v-213
h-88v614h191q116 0 174.5 -52.5t58.5 -143.5q0 -72 -37.5 -125.5t-105.5 -71.5zM602 1120v-227h131q51 0 84 28.5t33 84.5q0 58 -32 86t-85 28h-131z" />
    <glyph glyph-name="macron" unicode="&#xaf;" horiz-adv-x="1671" 
d="M1114 1540h-557v115h557v-115z" />
    <glyph glyph-name="degree" unicode="&#xb0;" horiz-adv-x="819" 
d="M412 803q-125 0 -211 85.5t-86 209.5q0 123 86.5 209t210.5 86q123 0 208 -86t85 -209q0 -124 -85 -209.5t-208 -85.5zM410 934q66 0 114.5 49t48.5 115t-48.5 115t-114.5 49t-115 -49t-49 -115t49 -115t115 -49z" />
    <glyph glyph-name="plusminus" unicode="&#xb1;" horiz-adv-x="983" 
d="M868 934v-131h-311v-311h-131v311h-311v131h311v311h131v-311h311zM115 229h753v-131h-753v131z" />
    <glyph glyph-name="uni00B2" unicode="&#xb2;" horiz-adv-x="737" 
d="M131 1335q6 88 67.5 150.5t161.5 62.5q99 0 164.5 -62t65.5 -159q0 -63 -36.5 -119t-117.5 -143l-106 -115h293v-98h-508l252 276q43 48 63 72t41 59.5t21 61.5q0 58 -36.5 93.5t-95.5 35.5q-56 0 -91 -37t-38 -94z" />
    <glyph glyph-name="uni00B3" unicode="&#xb3;" horiz-adv-x="720" 
d="M508 1217q40 -14 69 -57t29 -95q0 -88 -61 -154.5t-185 -66.5q-108 0 -172.5 60.5t-72.5 160.5l98 16q18 -139 154 -139q65 0 103 33.5t38 81.5q0 58 -45.5 78t-134.5 20v98q27 1 51.5 5t52 14t44 30.5t16.5 49.5q0 38 -32.5 68t-92.5 30q-126 0 -138 -131l-98 16
q8 93 71.5 153t157.5 60q57 0 103 -18t72.5 -47t40.5 -60.5t14 -62.5q0 -96 -82 -143z" />
    <glyph glyph-name="acute" unicode="&#xb4;" horiz-adv-x="1671" 
d="M688 1507l164 262h229l-262 -262h-131z" />
    <glyph glyph-name="paragraph" unicode="&#xb6;" horiz-adv-x="1409" 
d="M1294 1212h-196v-1679h-164v1679h-328v-1679h-164v1159q-141 0 -234 100t-93 244q0 142 93 241t234 99h852v-164z" />
    <glyph glyph-name="periodcentered" unicode="&#xb7;" horiz-adv-x="524" 
d="M262 541q-62 0 -104.5 42.5t-42.5 104.5q0 63 42.5 105.5t104.5 42.5q63 0 105.5 -42.5t42.5 -105.5q0 -62 -42.5 -104.5t-105.5 -42.5z" />
    <glyph glyph-name="cedilla" unicode="&#xb8;" horiz-adv-x="1671" 
d="M782 0h148l-92 -98q115 26 199.5 -44t84.5 -186q0 -126 -88 -210.5t-221 -84.5q-163 0 -248 129l99 93q52 -91 163 -91q78 0 129.5 47.5t51.5 118.5q0 61 -43 103.5t-105 42.5q-77 0 -137 -49l-66 98z" />
    <glyph glyph-name="uni00B9" unicode="&#xb9;" horiz-adv-x="671" 
d="M213 1499l213 74v-705h-98v578l-115 -37v90z" />
    <glyph glyph-name="ordmasculine" unicode="&#xba;" horiz-adv-x="737" 
d="M369 1384q106 0 180 -74t74 -180q0 -104 -74.5 -178.5t-179.5 -74.5q-104 0 -179 74.5t-75 178.5q0 105 74.5 179.5t179.5 74.5zM369 975q64 0 109.5 46t45.5 109q0 65 -45.5 110.5t-109.5 45.5q-63 0 -109.5 -46t-46.5 -110q0 -63 46.5 -109t109.5 -46z" />
    <glyph glyph-name="guillemotright" unicode="&#xbb;" horiz-adv-x="1277" 
d="M180 983h180l328 -442l-328 -443h-180l328 443zM655 983h181l327 -442l-327 -443h-181l328 443z" />
    <glyph glyph-name="onequarter" unicode="&#xbc;" horiz-adv-x="1843" 
d="M213 1319l213 74v-705h-98v578l-115 -37v90zM492 0h-132l959 1376h131zM1647 213h82v-98h-82v-115h-99v115h-360l459 590v-492zM1548 213v227l-166 -227h166z" />
    <glyph glyph-name="onehalf" unicode="&#xbd;" horiz-adv-x="1875" 
d="M213 1319l213 74v-705h-98v578l-115 -37v90zM492 0h-132l959 1376h131zM1270 483q6 88 67.5 150.5t161.5 62.5q99 0 164.5 -62t65.5 -159q0 -63 -36.5 -119t-117.5 -143l-107 -115h293v-98h-508l252 276q43 48 63 72t41 59.5t21 61.5q0 58 -36 93.5t-95 35.5
q-56 0 -91 -37t-38 -94z" />
    <glyph glyph-name="threequarters" unicode="&#xbe;" horiz-adv-x="1892" 
d="M508 1053q40 -14 69 -57t29 -95q0 -88 -61 -154.5t-185 -66.5q-108 0 -172.5 60.5t-72.5 160.5l98 17q18 -140 154 -140q65 0 103 33.5t38 81.5q0 58 -45.5 78t-134.5 20v99q164 6 164 98q0 38 -32.5 68t-92.5 30q-126 0 -138 -131l-98 16q8 93 71.5 153t157.5 60
q57 0 103 -18t72.5 -47t40.5 -60.5t14 -62.5q0 -96 -82 -143zM541 0h-131l958 1376h131zM1696 213h82v-98h-82v-115h-99v115h-360l459 590v-492zM1597 213v227l-165 -227h165z" />
    <glyph glyph-name="questiondown" unicode="&#xbf;" horiz-adv-x="1081" 
d="M557 705q-63 0 -105 42.5t-42 104.5t42 104.5t105 42.5q62 0 105 -43t43 -104t-43 -104t-105 -43zM557 -410q-112 0 -200 36t-139 95t-77 126t-26 137q0 103 47 178.5t145 156.5q78 64 114.5 127.5t37.5 143.5h196q3 -77 -26 -163t-99 -159q-23 -24 -70.5 -66
t-74.5 -68.5t-50.5 -67.5t-23.5 -82q0 -85 64.5 -141t179.5 -56q106 0 180 47t117 113l115 -160q-177 -197 -410 -197z" />
    <glyph glyph-name="Agrave" unicode="&#xc0;" horiz-adv-x="1343" 
d="M770 1507h-131l-262 262h229zM1114 0l-133 295h-619l-133 -295h-213l656 1409l655 -1409h-213zM453 492h438l-219 483z" />
    <glyph glyph-name="Aacute" unicode="&#xc1;" horiz-adv-x="1343" 
d="M573 1507l164 262h230l-262 -262h-132zM1114 0l-133 295h-619l-133 -295h-213l656 1409l655 -1409h-213zM453 492h438l-219 483z" />
    <glyph glyph-name="Acircumflex" unicode="&#xc2;" horiz-adv-x="1343" 
d="M780 1507l-108 107l-109 -107h-203l312 279l311 -279h-203zM1114 0l-133 295h-619l-133 -295h-213l656 1409l655 -1409h-213zM453 492h438l-219 483z" />
    <glyph glyph-name="Atilde" unicode="&#xc3;" horiz-adv-x="1343" 
d="M907 1704l125 -43q-75 -154 -221 -154q-50 0 -147 37q-57 24 -96.5 31t-74 -8.5t-57.5 -59.5l-125 47q81 150 226 150q11 0 21.5 -1t22 -3t18.5 -3.5t20.5 -6t17.5 -6.5t20 -8t19 -7q80 -39 139 -34.5t92 69.5zM1114 0l-133 295h-619l-133 -295h-213l656 1409l655 -1409
h-213zM453 492h438l-219 483z" />
    <glyph glyph-name="Adieresis" unicode="&#xc4;" horiz-adv-x="1343" 
d="M492 1507q-47 0 -81 34t-34 81q0 49 33.5 82t81.5 33q49 0 81.5 -32.5t32.5 -82.5q0 -48 -32.5 -81.5t-81.5 -33.5zM852 1507q-47 0 -81 34t-34 81q0 49 33.5 82t81.5 33q50 0 82.5 -32.5t32.5 -82.5q0 -48 -33 -81.5t-82 -33.5zM1114 0l-133 295h-619l-133 -295h-213
l656 1409l655 -1409h-213zM453 492h438l-219 483z" />
    <glyph glyph-name="Aring" unicode="&#xc5;" horiz-adv-x="1343" 
d="M672 1933q95 0 162 -67t67 -162t-67 -162t-162 -67t-162.5 67t-67.5 162t67.5 162t162.5 67zM672 1589q47 0 80.5 34t33.5 81t-33.5 81t-80.5 34t-81 -34t-34 -81t34 -81t81 -34zM1114 0l-133 295h-619l-133 -295h-213l656 1409l655 -1409h-213zM453 492h438l-219 483z
" />
    <glyph glyph-name="AE" unicode="&#xc6;" horiz-adv-x="1638" 
d="M1524 1180h-590v-394h491v-196h-491v-393h590v-197h-787v295h-356l-152 -295h-213l721 1376h787v-196zM483 492h254v491z" />
    <glyph glyph-name="Ccedilla" unicode="&#xc7;" horiz-adv-x="1310" 
d="M1229 145q-73 -68 -171 -109t-200 -50l-78 -84q115 26 200 -44t85 -186q0 -126 -88 -210.5t-221 -84.5q-163 0 -248 129l98 93q52 -91 164 -91q78 0 129 47.5t51 118.5q0 61 -42.5 103.5t-104.5 42.5q-77 0 -137 -49l-66 98l115 119q-132 16 -249 77.5t-201.5 153.5
t-133.5 214t-49 255q0 143 57 273.5t153 225t228.5 150.5t278.5 56q116 0 231 -41.5t199 -118.5l-84 -184q-73 74 -159 110.5t-200 36.5q-138 0 -255 -68t-184.5 -185t-67.5 -255t67.5 -255t184.5 -185t255 -68q114 0 200 37t159 113z" />
    <glyph glyph-name="Egrave" unicode="&#xc8;" horiz-adv-x="1048" 
d="M688 1507h-131l-262 262h229zM934 1180h-590v-394h492v-196h-492v-393h590v-197h-787v1376h787v-196z" />
    <glyph glyph-name="Eacute" unicode="&#xc9;" horiz-adv-x="1048" 
d="M393 1507l164 262h229l-262 -262h-131zM934 1180h-590v-394h492v-196h-492v-393h590v-197h-787v1376h787v-196z" />
    <glyph glyph-name="Ecircumflex" unicode="&#xca;" horiz-adv-x="1048" 
d="M633 1507l-109 107l-108 -107h-203l311 279l312 -279h-203zM934 1180h-590v-394h492v-196h-492v-393h590v-197h-787v1376h787v-196z" />
    <glyph glyph-name="Edieresis" unicode="&#xcb;" horiz-adv-x="1048" 
d="M344 1507q-47 0 -81 34t-34 81q0 49 33.5 82t81.5 33q50 0 82.5 -32.5t32.5 -82.5q0 -48 -33 -81.5t-82 -33.5zM705 1507q-47 0 -81 34t-34 81q0 49 33.5 82t81.5 33q49 0 81.5 -32.5t32.5 -82.5q0 -48 -32.5 -81.5t-81.5 -33.5zM934 1180h-590v-394h492v-196h-492v-393
h590v-197h-787v1376h787v-196z" />
    <glyph glyph-name="Igrave" unicode="&#xcc;" horiz-adv-x="491" 
d="M344 1507h-131l-262 262h229zM344 0h-197v1376h197v-1376z" />
    <glyph glyph-name="Iacute" unicode="&#xcd;" horiz-adv-x="491" 
d="M147 1507l164 262h230l-262 -262h-132zM344 0h-197v1376h197v-1376z" />
    <glyph glyph-name="Icircumflex" unicode="&#xce;" horiz-adv-x="491" 
d="M354 1507l-108 107l-109 -107h-203l312 279l311 -279h-203zM344 0h-197v1376h197v-1376z" />
    <glyph glyph-name="Idieresis" unicode="&#xcf;" horiz-adv-x="491" 
d="M66 1507q-47 0 -81 34t-34 81q0 49 33.5 82t81.5 33q49 0 81.5 -32.5t32.5 -82.5q0 -48 -32.5 -81.5t-81.5 -33.5zM426 1507q-47 0 -81 34t-34 81q0 49 33.5 82t81.5 33q50 0 82.5 -32.5t32.5 -82.5q0 -48 -33 -81.5t-82 -33.5zM344 0h-197v1376h197v-1376z" />
    <glyph glyph-name="Eth" unicode="&#xd0;" horiz-adv-x="1376" 
d="M592 1376q168 0 302.5 -53.5t221 -147.5t132.5 -218.5t46 -268.5t-47 -268.5t-134.5 -218t-222 -147.5t-298.5 -54h-412v623h-131v131h131v622h412zM643 197q198 0 326.5 142t128.5 349t-128.5 349.5t-326.5 142.5h-266v-426h131v-131h-131v-426h266z" />
    <glyph glyph-name="Ntilde" unicode="&#xd1;" horiz-adv-x="1441" 
d="M956 1704l125 -43q-75 -154 -221 -154q-50 0 -147 37q-57 24 -96.5 31t-74 -8.5t-57.5 -59.5l-125 47q81 150 226 150q11 0 21.5 -1t22 -3t18.5 -3.5t20.5 -6t17.5 -6.5t20 -8t19 -7q80 -39 139 -34.5t92 69.5zM1294 -33l-950 975v-942h-197v1409l951 -975v942h196v-1409
z" />
    <glyph glyph-name="Ograve" unicode="&#xd2;" horiz-adv-x="1572" 
d="M901 1507h-131l-262 262h229zM786 1393q191 0 353.5 -94.5t257 -257t94.5 -353.5q0 -143 -56 -273.5t-150.5 -225t-225 -150t-273.5 -55.5t-273.5 55.5t-225 150t-150 225t-55.5 273.5t55.5 273.5t150 225t225 150.5t273.5 56zM786 180q212 0 360 148t148 360t-148 360
t-360 148t-359.5 -148t-147.5 -360t147.5 -360t359.5 -148z" />
    <glyph glyph-name="Oacute" unicode="&#xd3;" horiz-adv-x="1572" 
d="M672 1507l164 262h229l-262 -262h-131zM786 1393q191 0 353.5 -94.5t257 -257t94.5 -353.5q0 -143 -56 -273.5t-150.5 -225t-225 -150t-273.5 -55.5t-273.5 55.5t-225 150t-150 225t-55.5 273.5t55.5 273.5t150 225t225 150.5t273.5 56zM786 180q212 0 360 148t148 360
t-148 360t-360 148t-359.5 -148t-147.5 -360t147.5 -360t359.5 -148z" />
    <glyph glyph-name="Ocircumflex" unicode="&#xd4;" horiz-adv-x="1572" 
d="M895 1507l-109 107l-108 -107h-203l311 279l312 -279h-203zM786 1393q191 0 353.5 -94.5t257 -257t94.5 -353.5q0 -143 -56 -273.5t-150.5 -225t-225 -150t-273.5 -55.5t-273.5 55.5t-225 150t-150 225t-55.5 273.5t55.5 273.5t150 225t225 150.5t273.5 56zM786 180
q212 0 360 148t148 360t-148 360t-360 148t-359.5 -148t-147.5 -360t147.5 -360t359.5 -148z" />
    <glyph glyph-name="Otilde" unicode="&#xd5;" horiz-adv-x="1572" 
d="M1022 1704l125 -43q-75 -154 -221 -154q-51 0 -148 37q-57 24 -96.5 31t-73.5 -8.5t-57 -59.5l-125 47q81 150 225 150q10 0 20 -1t18 -2t18.5 -3.5t16 -4t17.5 -5.5t15.5 -5.5t17.5 -7t17 -6.5q80 -39 139 -34.5t92 69.5zM786 1393q191 0 353.5 -94.5t257 -257
t94.5 -353.5q0 -143 -56 -273.5t-150.5 -225t-225 -150t-273.5 -55.5t-273.5 55.5t-225 150t-150 225t-55.5 273.5t55.5 273.5t150 225t225 150.5t273.5 56zM786 180q212 0 360 148t148 360t-148 360t-360 148t-359.5 -148t-147.5 -360t147.5 -360t359.5 -148z" />
    <glyph glyph-name="Odieresis" unicode="&#xd6;" horiz-adv-x="1572" 
d="M606 1507q-47 0 -80.5 34t-33.5 81q0 49 33 82t81 33q50 0 82.5 -32.5t32.5 -82.5q0 -48 -33 -81.5t-82 -33.5zM967 1507q-47 0 -81 34t-34 81q0 49 33.5 82t81.5 33q49 0 81.5 -32.5t32.5 -82.5q0 -48 -32.5 -81.5t-81.5 -33.5zM786 1393q191 0 353.5 -94.5t257 -257
t94.5 -353.5q0 -143 -56 -273.5t-150.5 -225t-225 -150t-273.5 -55.5t-273.5 55.5t-225 150t-150 225t-55.5 273.5t55.5 273.5t150 225t225 150.5t273.5 56zM786 180q212 0 360 148t148 360t-148 360t-360 148t-359.5 -148t-147.5 -360t147.5 -360t359.5 -148z" />
    <glyph glyph-name="multiply" unicode="&#xd7;" horiz-adv-x="897" 
d="M688 956l94 -94l-241 -239l241 -240l-94 -94l-239 241l-240 -241l-94 94l241 240l-241 239l94 94l240 -241z" />
    <glyph glyph-name="Oslash" unicode="&#xd8;" horiz-adv-x="1572" 
d="M1278 1194q101 -99 157 -229.5t56 -276.5q0 -143 -56 -273.5t-150.5 -225t-225 -150t-273.5 -55.5q-237 0 -424 141l-108 -125h-115l156 182q-101 99 -157 229.5t-56 276.5q0 143 55.5 273.5t150 225t225 150.5t273.5 56q235 0 424 -142l109 125h115zM279 688
q0 -103 38 -195t107 -161l659 770q-134 94 -297 94q-212 0 -359.5 -148t-147.5 -360zM786 180q212 0 360 148t148 360q0 103 -38 195t-107 161l-660 -770q134 -94 297 -94z" />
    <glyph glyph-name="Ugrave" unicode="&#xd9;" horiz-adv-x="1277" 
d="M770 1507h-131l-262 262h229zM967 1376h196v-770q0 -138 -31.5 -250.5t-95 -196t-164.5 -129.5t-233 -46q-135 0 -237 46t-164 130t-92.5 195.5t-30.5 250.5v770h196v-835q0 -162 87.5 -261.5t240.5 -99.5q152 0 240 99.5t88 261.5v835z" />
    <glyph glyph-name="Uacute" unicode="&#xda;" horiz-adv-x="1277" 
d="M508 1507l164 262h229l-262 -262h-131zM967 1376h196v-770q0 -138 -31.5 -250.5t-95 -196t-164.5 -129.5t-233 -46q-135 0 -237 46t-164 130t-92.5 195.5t-30.5 250.5v770h196v-835q0 -162 87.5 -261.5t240.5 -99.5q152 0 240 99.5t88 261.5v835z" />
    <glyph glyph-name="Ucircumflex" unicode="&#xdb;" horiz-adv-x="1277" 
d="M748 1507l-109 107l-109 -107h-202l311 279l311 -279h-202zM967 1376h196v-770q0 -138 -31.5 -250.5t-95 -196t-164.5 -129.5t-233 -46q-135 0 -237 46t-164 130t-92.5 195.5t-30.5 250.5v770h196v-835q0 -162 87.5 -261.5t240.5 -99.5q152 0 240 99.5t88 261.5v835z" />
    <glyph glyph-name="Udieresis" unicode="&#xdc;" horiz-adv-x="1277" 
d="M459 1507q-47 0 -81 34t-34 81q0 49 33.5 82t81.5 33q49 0 81.5 -32.5t32.5 -82.5q0 -48 -32.5 -81.5t-81.5 -33.5zM819 1507q-47 0 -80.5 34t-33.5 81q0 49 33 82t81 33q49 0 82 -32.5t33 -82.5q0 -48 -33 -81.5t-82 -33.5zM967 1376h196v-770q0 -138 -31.5 -250.5
t-95 -196t-164.5 -129.5t-233 -46q-135 0 -237 46t-164 130t-92.5 195.5t-30.5 250.5v770h196v-835q0 -162 87.5 -261.5t240.5 -99.5q152 0 240 99.5t88 261.5v835z" />
    <glyph glyph-name="Yacute" unicode="&#xdd;" horiz-adv-x="1212" 
d="M508 1507l164 262h229l-262 -262h-131zM975 1376h221l-491 -819v-557h-197v557l-492 819h222l368 -631z" />
    <glyph glyph-name="Thorn" unicode="&#xde;" horiz-adv-x="1179" 
d="M573 1171q260 0 392.5 -118.5t132.5 -321.5q0 -199 -125 -330t-338 -131h-291v-270h-197v1442h197v-271h229zM637 467q116 0 190 63t74 189q0 127 -79.5 191.5t-196.5 64.5h-281v-508h293z" />
    <glyph glyph-name="germandbls" unicode="&#xdf;" horiz-adv-x="1114" 
d="M311 0v1032q0 99 62 164.5t155 65.5q89 0 149 -47t60 -134q0 -41 -21.5 -82t-60.5 -71q-102 -76 -278 -76v-197q196 0 293 -32q75 -25 120.5 -82.5t45.5 -130.5q0 -65 -25 -112t-67 -70.5t-90 -36t-103 -12t-96 5t-78 12.5v-197q88 -16 178 -16q111 0 203 36.5t151 97.5
t91 138.5t32 161.5q0 132 -75.5 235.5t-200.5 132.5q29 14 59 40.5t59 64.5t47.5 90.5t18.5 108.5q0 52 -14 103.5t-45.5 99.5t-76.5 84.5t-112 58.5t-147 22q-19 0 -39 -1t-65.5 -10.5t-84.5 -25.5t-85.5 -50.5t-79 -81t-54.5 -122t-22 -168.5v-999h196z" />
    <glyph glyph-name="agrave" unicode="&#xe0;" 
d="M868 1114h-131l-262 262h230zM901 983h197v-983h-197v143q-122 -159 -328 -159q-105 0 -197 40t-156.5 108.5t-101 162t-36.5 197.5q0 140 62 255.5t175.5 183.5t253.5 68q206 0 328 -159v143zM590 180q129 0 220 91.5t91 220.5t-91 220t-220 91t-220 -91t-91 -220
t91 -220.5t220 -91.5z" />
    <glyph glyph-name="aacute" unicode="&#xe1;" 
d="M541 1114l164 262h229l-262 -262h-131zM901 983h197v-983h-197v143q-122 -159 -328 -159q-105 0 -197 40t-156.5 108.5t-101 162t-36.5 197.5q0 140 62 255.5t175.5 183.5t253.5 68q206 0 328 -159v143zM590 180q129 0 220 91.5t91 220.5t-91 220t-220 91t-220 -91
t-91 -220t91 -220.5t220 -91.5z" />
    <glyph glyph-name="acircumflex" unicode="&#xe2;" 
d="M764 1114l-109 107l-108 -107h-203l311 279l312 -279h-203zM901 983h197v-983h-197v143q-122 -159 -328 -159q-105 0 -197 40t-156.5 108.5t-101 162t-36.5 197.5q0 140 62 255.5t175.5 183.5t253.5 68q206 0 328 -159v143zM590 180q129 0 220 91.5t91 220.5t-91 220
t-220 91t-220 -91t-91 -220t91 -220.5t220 -91.5z" />
    <glyph glyph-name="atilde" unicode="&#xe3;" 
d="M891 1311l125 -43q-75 -154 -221 -154q-51 0 -148 37q-57 24 -96.5 31t-73.5 -8.5t-57 -59.5l-125 47q81 150 225 150q11 0 21.5 -1t22 -3t18.5 -3.5t20.5 -6t17.5 -6.5t20 -8t19 -7q80 -39 139.5 -34.5t92.5 69.5zM901 983h197v-983h-197v143q-122 -159 -328 -159
q-105 0 -197 40t-156.5 108.5t-101 162t-36.5 197.5q0 140 62 255.5t175.5 183.5t253.5 68q206 0 328 -159v143zM590 180q129 0 220 91.5t91 220.5t-91 220t-220 91t-220 -91t-91 -220t91 -220.5t220 -91.5z" />
    <glyph glyph-name="adieresis" unicode="&#xe4;" 
d="M475 1114q-47 0 -81 34t-34 81q0 49 33.5 81.5t81.5 32.5q50 0 82.5 -32.5t32.5 -81.5q0 -48 -33 -81.5t-82 -33.5zM836 1114q-47 0 -81 34t-34 81q0 49 33.5 81.5t81.5 32.5q50 0 82 -32.5t32 -81.5q0 -48 -32.5 -81.5t-81.5 -33.5zM901 983h197v-983h-197v143
q-122 -159 -328 -159q-105 0 -197 40t-156.5 108.5t-101 162t-36.5 197.5q0 140 62 255.5t175.5 183.5t253.5 68q206 0 328 -159v143zM590 180q129 0 220 91.5t91 220.5t-91 220t-220 91t-220 -91t-91 -220t91 -220.5t220 -91.5z" />
    <glyph glyph-name="aring" unicode="&#xe5;" 
d="M672 1507q95 0 162 -67t67 -162t-67 -162t-162 -67t-162.5 67t-67.5 162t67.5 162t162.5 67zM672 1163q47 0 80.5 34t33.5 81t-33.5 81t-80.5 34t-81 -34t-34 -81t34 -81t81 -34zM901 983h197v-983h-197v143q-122 -159 -328 -159q-105 0 -197 40t-156.5 108.5t-101 162
t-36.5 197.5q0 140 62 255.5t175.5 183.5t253.5 68q206 0 328 -159v143zM590 180q129 0 220 91.5t91 220.5t-91 220t-220 91t-220 -91t-91 -220t91 -220.5t220 -91.5z" />
    <glyph glyph-name="ae" unicode="&#xe6;" horiz-adv-x="1802" 
d="M1720 487q0 -45 -6 -86h-743q22 -111 108.5 -166t210.5 -55q159 0 299 99l66 -177q-16 -13 -41 -29t-71.5 -38t-114.5 -36.5t-142 -14.5q-187 0 -319 92v-76h-197v100q-44 -55 -137.5 -85.5t-181.5 -30.5q-166 0 -267.5 89.5t-101.5 237.5q0 182 199 271
q66 29 160.5 36.5t173.5 0t155 -24.5q0 64 -26.5 108t-70.5 64.5t-84.5 28.5t-84.5 8q-161 0 -289 -92l-92 157q20 16 50 33.5t81.5 42t122 40t143.5 15.5q142 0 230 -40t141 -119q140 159 369 159q200 0 330 -139t130 -373zM971 582h549q-2 38 -18.5 75.5t-47.5 71t-84 54
t-119 20.5q-64 0 -118.5 -21t-88 -54t-52.5 -71t-21 -75zM770 344v78q-156 36 -265.5 29.5t-167.5 -45t-58 -99.5q0 -59 51 -93t125 -34t146 21t120.5 59.5t48.5 83.5z" />
    <glyph glyph-name="ccedilla" unicode="&#xe7;" horiz-adv-x="1015" 
d="M934 96q-101 -93 -272 -110l-78 -84q115 26 199.5 -44t84.5 -186q0 -126 -88 -210.5t-221 -84.5q-163 0 -248 129l99 93q52 -91 163 -91q78 0 129.5 47.5t51.5 118.5q0 61 -43 103.5t-105 42.5q-77 0 -137 -49l-66 98l115 121q-202 27 -319 167t-117 335q0 141 62 255.5
t182.5 183t279.5 68.5q205 0 328 -112l-84 -182q-101 98 -242 98q-136 0 -232.5 -91t-96.5 -218q0 -129 96.5 -221.5t232.5 -92.5q141 0 242 101z" />
    <glyph glyph-name="egrave" unicode="&#xe8;" horiz-adv-x="1114" 
d="M705 1114h-132l-262 262h230zM1032 487q0 -45 -6 -86h-743q22 -111 108.5 -166t210.5 -55q159 0 299 99l66 -177q-16 -13 -41 -29t-71.5 -38t-114.5 -36.5t-142 -14.5q-125 0 -225 40.5t-162.5 110.5t-95.5 161t-33 196q0 141 58.5 255.5t171 183t259.5 68.5
q200 0 330.5 -139t130.5 -373zM283 582h548q-2 38 -18 75.5t-47 71t-84 54t-119 20.5q-64 0 -118.5 -21t-88 -54t-52.5 -71t-21 -75z" />
    <glyph glyph-name="eacute" unicode="&#xe9;" horiz-adv-x="1114" 
d="M459 1114l164 262h229l-262 -262h-131zM1032 487q0 -45 -6 -86h-743q22 -111 108.5 -166t210.5 -55q159 0 299 99l66 -177q-16 -13 -41 -29t-71.5 -38t-114.5 -36.5t-142 -14.5q-125 0 -225 40.5t-162.5 110.5t-95.5 161t-33 196q0 141 58.5 255.5t171 183t259.5 68.5
q200 0 330.5 -139t130.5 -373zM283 582h548q-2 38 -18 75.5t-47 71t-84 54t-119 20.5q-64 0 -118.5 -21t-88 -54t-52.5 -71t-21 -75z" />
    <glyph glyph-name="ecircumflex" unicode="&#xea;" horiz-adv-x="1114" 
d="M666 1114l-109 107l-108 -107h-203l311 279l311 -279h-202zM1032 487q0 -45 -6 -86h-743q22 -111 108.5 -166t210.5 -55q159 0 299 99l66 -177q-16 -13 -41 -29t-71.5 -38t-114.5 -36.5t-142 -14.5q-125 0 -225 40.5t-162.5 110.5t-95.5 161t-33 196q0 141 58.5 255.5
t171 183t259.5 68.5q200 0 330.5 -139t130.5 -373zM283 582h548q-2 38 -18 75.5t-47 71t-84 54t-119 20.5q-64 0 -118.5 -21t-88 -54t-52.5 -71t-21 -75z" />
    <glyph glyph-name="edieresis" unicode="&#xeb;" horiz-adv-x="1114" 
d="M377 1114q-47 0 -81 34t-34 81q0 49 33.5 81.5t81.5 32.5q50 0 82.5 -32.5t32.5 -81.5q0 -48 -33 -81.5t-82 -33.5zM737 1114q-47 0 -80.5 34t-33.5 81q0 49 33 81.5t81 32.5q50 0 82.5 -32.5t32.5 -81.5q0 -48 -33 -81.5t-82 -33.5zM1032 487q0 -45 -6 -86h-743
q22 -111 108.5 -166t210.5 -55q159 0 299 99l66 -177q-16 -13 -41 -29t-71.5 -38t-114.5 -36.5t-142 -14.5q-125 0 -225 40.5t-162.5 110.5t-95.5 161t-33 196q0 141 58.5 255.5t171 183t259.5 68.5q200 0 330.5 -139t130.5 -373zM283 582h548q-2 38 -18 75.5t-47 71t-84 54
t-119 20.5q-64 0 -118.5 -21t-88 -54t-52.5 -71t-21 -75z" />
    <glyph glyph-name="igrave" unicode="&#xec;" horiz-adv-x="491" 
d="M344 1114h-131l-262 262h229zM147 0v983h197v-983h-197z" />
    <glyph glyph-name="iacute" unicode="&#xed;" horiz-adv-x="491" 
d="M147 1114l164 262h230l-262 -262h-132zM147 0v983h197v-983h-197z" />
    <glyph glyph-name="icircumflex" unicode="&#xee;" horiz-adv-x="491" 
d="M354 1114l-108 107l-109 -107h-203l312 279l311 -279h-203zM147 0v983h197v-983h-197z" />
    <glyph glyph-name="idieresis" unicode="&#xef;" horiz-adv-x="491" 
d="M66 1114q-47 0 -81 34t-34 81q0 49 33.5 81.5t81.5 32.5q50 0 82 -32.5t32 -81.5q0 -48 -32.5 -81.5t-81.5 -33.5zM426 1114q-47 0 -81 34t-34 81q0 49 33.5 81.5t81.5 32.5q50 0 82.5 -32.5t32.5 -81.5q0 -48 -33 -81.5t-82 -33.5zM147 0v983h197v-983h-197z" />
    <glyph glyph-name="eth" unicode="&#xf0;" horiz-adv-x="1179" 
d="M649 1235q449 -389 449 -743q0 -138 -68 -255t-185 -185t-255 -68t-255 68t-185 185t-68 255q0 136 65.5 250.5t182.5 182.5t258 68q44 0 74 -6q-78 90 -197 182l-350 -122v131l233 82l-164 116l144 99l200 -148l340 117v-133zM590 180q127 0 219 92t92 220t-91.5 219.5
t-219.5 91.5t-219.5 -91.5t-91.5 -219.5t92 -220t219 -92z" />
    <glyph glyph-name="ntilde" unicode="&#xf1;" horiz-adv-x="1146" 
d="M809 1311l125 -43q-75 -154 -221 -154q-51 0 -148 37q-57 24 -96.5 31t-73.5 -8.5t-57 -59.5l-125 47q81 150 225 150q10 0 20 -1t18 -2t18.5 -3.5t16 -4t17.5 -5.5t15.5 -5.5t17.5 -7t17 -6.5q80 -39 139 -34.5t92 69.5zM651 999q179 0 280 -110t101 -324v-565h-196v549
q0 125 -50.5 189.5t-171.5 64.5q-46 0 -92.5 -18t-86.5 -50t-65.5 -83t-25.5 -111v-541h-197v983h197v-115q113 131 307 131z" />
    <glyph glyph-name="ograve" unicode="&#xf2;" horiz-adv-x="1179" 
d="M705 1114h-132l-262 262h230zM590 999q138 0 255 -67.5t185 -184.5t68 -255t-68 -255t-185 -185t-255 -68t-255 68t-185 185t-68 255t68 255t185 184.5t255 67.5zM590 180q127 0 219 92t92 220t-91.5 219.5t-219.5 91.5t-219.5 -91.5t-91.5 -219.5t92 -220t219 -92z" />
    <glyph glyph-name="oacute" unicode="&#xf3;" horiz-adv-x="1179" 
d="M475 1114l164 262h229l-262 -262h-131zM590 999q138 0 255 -67.5t185 -184.5t68 -255t-68 -255t-185 -185t-255 -68t-255 68t-185 185t-68 255t68 255t185 184.5t255 67.5zM590 180q127 0 219 92t92 220t-91.5 219.5t-219.5 91.5t-219.5 -91.5t-91.5 -219.5t92 -220
t219 -92z" />
    <glyph glyph-name="ocircumflex" unicode="&#xf4;" horiz-adv-x="1179" 
d="M698 1114l-108 107l-109 -107h-202l311 279l311 -279h-203zM590 999q138 0 255 -67.5t185 -184.5t68 -255t-68 -255t-185 -185t-255 -68t-255 68t-185 185t-68 255t68 255t185 184.5t255 67.5zM590 180q127 0 219 92t92 220t-91.5 219.5t-219.5 91.5t-219.5 -91.5
t-91.5 -219.5t92 -220t219 -92z" />
    <glyph glyph-name="otilde" unicode="&#xf5;" horiz-adv-x="1179" 
d="M825 1311l125 -43q-75 -154 -221 -154q-50 0 -147 37q-57 24 -96.5 31t-74 -8.5t-57.5 -59.5l-125 47q81 150 226 150q11 0 21.5 -1t22 -3t18.5 -3.5t20.5 -6t17.5 -6.5t20 -8t19 -7q80 -39 139 -34.5t92 69.5zM590 999q138 0 255 -67.5t185 -184.5t68 -255t-68 -255
t-185 -185t-255 -68t-255 68t-185 185t-68 255t68 255t185 184.5t255 67.5zM590 180q127 0 219 92t92 220t-91.5 219.5t-219.5 91.5t-219.5 -91.5t-91.5 -219.5t92 -220t219 -92z" />
    <glyph glyph-name="odieresis" unicode="&#xf6;" horiz-adv-x="1179" 
d="M410 1114q-47 0 -81 34t-34 81q0 49 33.5 81.5t81.5 32.5q50 0 82 -32.5t32 -81.5q0 -48 -32.5 -81.5t-81.5 -33.5zM770 1114q-47 0 -81 34t-34 81q0 49 33.5 81.5t81.5 32.5q50 0 82.5 -32.5t32.5 -81.5q0 -48 -33 -81.5t-82 -33.5zM590 999q138 0 255 -67.5t185 -184.5
t68 -255t-68 -255t-185 -185t-255 -68t-255 68t-185 185t-68 255t68 255t185 184.5t255 67.5zM590 180q127 0 219 92t92 220t-91.5 219.5t-219.5 91.5t-219.5 -91.5t-91.5 -219.5t92 -220t219 -92z" />
    <glyph glyph-name="divide" unicode="&#xf7;" horiz-adv-x="983" 
d="M492 852q-62 0 -105 43t-43 104q0 63 43 105.5t105 42.5q63 0 105 -42.5t42 -105.5q0 -62 -42 -104.5t-105 -42.5zM115 688h753v-131h-753v131zM492 98q-62 0 -105 43t-43 105q0 63 43 105t105 42q63 0 105 -42t42 -105q0 -62 -42 -105t-105 -43z" />
    <glyph glyph-name="oslash" unicode="&#xf8;" horiz-adv-x="1179" 
d="M954 846q144 -151 144 -354q0 -138 -68 -255t-185 -185t-255 -68q-162 0 -299 96l-70 -80h-115l119 137q-67 70 -105 162t-38 193q0 138 68 255t185 184.5t255 67.5q162 0 299 -96l69 80h115zM279 492q0 -119 77 -205l402 465q-76 51 -168 51q-128 0 -219.5 -91.5
t-91.5 -219.5zM590 180q127 0 219 92t92 220q0 116 -78 204l-401 -465q76 -51 168 -51z" />
    <glyph glyph-name="ugrave" unicode="&#xf9;" horiz-adv-x="1146" 
d="M672 1114h-131l-262 262h229zM496 -16q-179 0 -280 110t-101 324v565h196v-549q0 -126 50.5 -190t170.5 -64q62 0 123 29.5t104.5 91.5t43.5 141v541h196v-983h-196v115q-113 -131 -307 -131z" />
    <glyph glyph-name="uacute" unicode="&#xfa;" horiz-adv-x="1146" 
d="M442 1114l164 262h230l-263 -262h-131zM496 -16q-179 0 -280 110t-101 324v565h196v-549q0 -126 50.5 -190t170.5 -64q62 0 123 29.5t104.5 91.5t43.5 141v541h196v-983h-196v115q-113 -131 -307 -131z" />
    <glyph glyph-name="ucircumflex" unicode="&#xfb;" horiz-adv-x="1146" 
d="M666 1114l-109 107l-108 -107h-203l311 279l311 -279h-202zM496 -16q-179 0 -280 110t-101 324v565h196v-549q0 -126 50.5 -190t170.5 -64q62 0 123 29.5t104.5 91.5t43.5 141v541h196v-983h-196v115q-113 -131 -307 -131z" />
    <glyph glyph-name="udieresis" unicode="&#xfc;" horiz-adv-x="1146" 
d="M377 1114q-47 0 -81 34t-34 81q0 49 33.5 81.5t81.5 32.5q50 0 82.5 -32.5t32.5 -81.5q0 -48 -33 -81.5t-82 -33.5zM737 1114q-47 0 -80.5 34t-33.5 81q0 49 33 81.5t81 32.5q50 0 82.5 -32.5t32.5 -81.5q0 -48 -33 -81.5t-82 -33.5zM496 -16q-179 0 -280 110t-101 324
v565h196v-549q0 -126 50.5 -190t170.5 -64q62 0 123 29.5t104.5 91.5t43.5 141v541h196v-983h-196v115q-113 -131 -307 -131z" />
    <glyph glyph-name="yacute" unicode="&#xfd;" horiz-adv-x="1048" 
d="M401 1114l164 262h230l-263 -262h-131zM813 983h219l-665 -1507h-215l262 587l-398 920h220l288 -680z" />
    <glyph glyph-name="thorn" unicode="&#xfe;" 
d="M672 999q140 0 253.5 -68t175.5 -183.5t62 -255.5q0 -104 -36.5 -197.5t-101 -162t-156.5 -108.5t-197 -40q-206 0 -328 159v-667h-197v1966h197v-602q122 159 328 159zM655 180q129 0 220.5 91.5t91.5 220.5t-91.5 220t-220.5 91t-220 -91t-91 -220t91 -220.5t220 -91.5
z" />
    <glyph glyph-name="ydieresis" unicode="&#xff;" horiz-adv-x="1048" 
d="M344 1114q-47 0 -81 34t-34 81q0 49 33.5 81.5t81.5 32.5q50 0 82.5 -32.5t32.5 -81.5q0 -48 -33 -81.5t-82 -33.5zM705 1114q-47 0 -81 34t-34 81q0 49 33.5 81.5t81.5 32.5q49 0 81.5 -32.5t32.5 -81.5q0 -48 -32.5 -81.5t-81.5 -33.5zM813 983h219l-665 -1507h-215
l262 587l-398 920h220l288 -680z" />
    <glyph glyph-name="Amacron" unicode="&#x100;" horiz-adv-x="1343" 
d="M950 1540h-557v115h557v-115zM1114 0l-133 295h-619l-133 -295h-213l656 1409l655 -1409h-213zM453 492h438l-219 483z" />
    <glyph glyph-name="amacron" unicode="&#x101;" 
d="M934 1147h-557v115h557v-115zM901 983h197v-983h-197v143q-122 -159 -328 -159q-105 0 -197 40t-156.5 108.5t-101 162t-36.5 197.5q0 140 62 255.5t175.5 183.5t253.5 68q206 0 328 -159v143zM590 180q129 0 220 91.5t91 220.5t-91 220t-220 91t-220 -91t-91 -220
t91 -220.5t220 -91.5z" />
    <glyph glyph-name="Abreve" unicode="&#x102;" horiz-adv-x="1343" 
d="M819 1769h115q0 -109 -76.5 -185.5t-185.5 -76.5t-185.5 76.5t-76.5 185.5h114q0 -61 43 -104t105 -43t104.5 43t42.5 104zM1114 0l-133 295h-619l-133 -295h-213l656 1409l655 -1409h-213zM453 492h438l-219 483z" />
    <glyph glyph-name="abreve" unicode="&#x103;" 
d="M803 1376h115q0 -109 -77 -185.5t-186 -76.5t-185.5 76.5t-76.5 185.5h115q0 -62 43 -104.5t104 -42.5q62 0 105 43t43 104zM901 983h197v-983h-197v143q-122 -159 -328 -159q-105 0 -197 40t-156.5 108.5t-101 162t-36.5 197.5q0 140 62 255.5t175.5 183.5t253.5 68
q206 0 328 -159v143zM590 180q129 0 220 91.5t91 220.5t-91 220t-220 91t-220 -91t-91 -220t91 -220.5t220 -91.5z" />
    <glyph glyph-name="Aogonek" unicode="&#x104;" horiz-adv-x="1343" 
d="M1360 -291l33 -102q-48 -33 -111 -33q-107 0 -170 71.5t-63 182.5q0 45 18 94t47 78l-133 295h-619l-133 -295h-213l656 1409l655 -1409q-61 0 -112.5 -46t-51.5 -126q0 -61 30.5 -98t74.5 -39.5t92 18.5zM453 492h438l-219 483z" />
    <glyph glyph-name="aogonek" unicode="&#x105;" 
d="M1130 -291l33 -102q-48 -33 -110 -33q-107 0 -170.5 71.5t-63.5 182.5q0 110 82 188v127q-122 -159 -328 -159q-105 0 -197 40t-156.5 108.5t-101 162t-36.5 197.5q0 140 62 255.5t175.5 183.5t253.5 68q206 0 328 -159v143h197v-983q-57 0 -110.5 -53t-53.5 -119
q0 -61 30.5 -98t74 -39.5t91.5 18.5zM590 180q129 0 220 91.5t91 220.5t-91 220t-220 91t-220 -91t-91 -220t91 -220.5t220 -91.5z" />
    <glyph glyph-name="Cacute" unicode="&#x106;" horiz-adv-x="1310" 
d="M672 1507l164 262h229l-262 -262h-131zM786 180q114 0 200 37t159 113l84 -185q-84 -77 -199 -119t-231 -42q-146 0 -278.5 55.5t-228.5 150t-153 225t-57 273.5t57 273.5t153 225t228.5 150.5t278.5 56q116 0 231 -41.5t199 -118.5l-84 -184q-73 74 -159 110.5
t-200 36.5q-138 0 -255 -68t-184.5 -185t-67.5 -255t67.5 -255t184.5 -185t255 -68z" />
    <glyph glyph-name="cacute" unicode="&#x107;" horiz-adv-x="1015" 
d="M475 1114l164 262h229l-262 -262h-131zM82 492q0 141 62 255.5t182.5 183t279.5 68.5q205 0 328 -112l-84 -182q-101 98 -242 98q-136 0 -232.5 -91t-96.5 -218q0 -129 96.5 -221.5t232.5 -92.5q141 0 242 101l84 -185q-57 -54 -146 -83t-182 -29q-160 0 -281 69
t-182 183t-61 256z" />
    <glyph glyph-name="Cdotaccent" unicode="&#x10a;" horiz-adv-x="1310" 
d="M786 1475q-62 0 -104.5 42.5t-42.5 104.5t42.5 104.5t104.5 42.5t105 -43t43 -104t-43 -104t-105 -43zM786 180q114 0 200 37t159 113l84 -185q-84 -77 -199 -119t-231 -42q-146 0 -278.5 55.5t-228.5 150t-153 225t-57 273.5t57 273.5t153 225t228.5 150.5t278.5 56
q116 0 231 -41.5t199 -118.5l-84 -184q-73 74 -159 110.5t-200 36.5q-138 0 -255 -68t-184.5 -185t-67.5 -255t67.5 -255t184.5 -185t255 -68z" />
    <glyph glyph-name="cdotaccent" unicode="&#x10b;" horiz-adv-x="1015" 
d="M590 1081q-62 0 -105 43.5t-43 104.5t43 104t105 43t104.5 -43t42.5 -104q0 -62 -43 -105t-104 -43zM82 492q0 141 62 255.5t182.5 183t279.5 68.5q205 0 328 -112l-84 -182q-101 98 -242 98q-136 0 -232.5 -91t-96.5 -218q0 -129 96.5 -221.5t232.5 -92.5q141 0 242 101
l84 -185q-57 -54 -146 -83t-182 -29q-160 0 -281 69t-182 183t-61 256z" />
    <glyph glyph-name="Ccaron" unicode="&#x10c;" horiz-adv-x="1310" 
d="M862 1769h203l-311 -278l-312 278h203l109 -106zM786 180q114 0 200 37t159 113l84 -185q-84 -77 -199 -119t-231 -42q-146 0 -278.5 55.5t-228.5 150t-153 225t-57 273.5t57 273.5t153 225t228.5 150.5t278.5 56q116 0 231 -41.5t199 -118.5l-84 -184q-73 74 -159 110.5
t-200 36.5q-138 0 -255 -68t-184.5 -185t-67.5 -255t67.5 -255t184.5 -185t255 -68z" />
    <glyph glyph-name="ccaron" unicode="&#x10d;" horiz-adv-x="1015" 
d="M698 1376h203l-311 -278l-311 278h202l109 -106zM82 492q0 141 62 255.5t182.5 183t279.5 68.5q205 0 328 -112l-84 -182q-101 98 -242 98q-136 0 -232.5 -91t-96.5 -218q0 -129 96.5 -221.5t232.5 -92.5q141 0 242 101l84 -185q-57 -54 -146 -83t-182 -29
q-160 0 -281 69t-182 183t-61 256z" />
    <glyph glyph-name="Dcaron" unicode="&#x10e;" horiz-adv-x="1343" 
d="M715 1769h203l-312 -278l-311 278h203l108 -106zM559 1376q135 0 249 -35t197 -97.5t141.5 -148.5t87 -189t28.5 -218q0 -143 -47.5 -268t-135 -218.5t-222 -147.5t-298.5 -54h-412v1376h412zM610 197q198 0 326.5 142t128.5 349t-128.5 349.5t-326.5 142.5h-266v-983
h266z" />
    <glyph glyph-name="dcaron" unicode="&#x10f;" horiz-adv-x="1507" 
d="M901 1442h197v-1442h-197v143q-122 -159 -328 -159q-105 0 -197 40t-156.5 108.5t-101 162t-36.5 197.5q0 140 62 255.5t175.5 183.5t253.5 68q206 0 328 -159v602zM1163 1114l66 262h196l-163 -262h-99zM590 180q129 0 220 91.5t91 220.5t-91 220t-220 91t-220 -91
t-91 -220t91 -220.5t220 -91.5z" />
    <glyph glyph-name="Dcroat" unicode="&#x110;" horiz-adv-x="1376" 
d="M592 1376q168 0 302.5 -53.5t221 -147.5t132.5 -218.5t46 -268.5t-47 -268.5t-134.5 -218t-222 -147.5t-298.5 -54h-412v623h-131v131h131v622h412zM643 197q198 0 326.5 142t128.5 349t-128.5 349.5t-326.5 142.5h-266v-426h131v-131h-131v-426h266z" />
    <glyph glyph-name="dcroat" unicode="&#x111;" horiz-adv-x="1277" 
d="M1229 1245v-98h-131v-1147h-197v143q-122 -159 -328 -159q-105 0 -197 40t-156.5 108.5t-101 162t-36.5 197.5q0 140 62 255.5t175.5 183.5t253.5 68q206 0 328 -159v307h-131v98h131v197h197v-197h131zM590 180q129 0 220 91.5t91 220.5t-91 220t-220 91t-220 -91
t-91 -220t91 -220.5t220 -91.5z" />
    <glyph glyph-name="Emacron" unicode="&#x112;" horiz-adv-x="1048" 
d="M803 1540h-557v115h557v-115zM934 1180h-590v-394h492v-196h-492v-393h590v-197h-787v1376h787v-196z" />
    <glyph glyph-name="emacron" unicode="&#x113;" horiz-adv-x="1114" 
d="M836 1147h-557v115h557v-115zM1032 487q0 -45 -6 -86h-743q22 -111 108.5 -166t210.5 -55q159 0 299 99l66 -177q-16 -13 -41 -29t-71.5 -38t-114.5 -36.5t-142 -14.5q-125 0 -225 40.5t-162.5 110.5t-95.5 161t-33 196q0 141 58.5 255.5t171 183t259.5 68.5
q200 0 330.5 -139t130.5 -373zM283 582h548q-2 38 -18 75.5t-47 71t-84 54t-119 20.5q-64 0 -118.5 -21t-88 -54t-52.5 -71t-21 -75z" />
    <glyph glyph-name="Edotaccent" unicode="&#x116;" horiz-adv-x="1048" 
d="M524 1475q-62 0 -104.5 42.5t-42.5 104.5t42.5 104.5t104.5 42.5t105 -43t43 -104t-43 -104t-105 -43zM934 1180h-590v-394h492v-196h-492v-393h590v-197h-787v1376h787v-196z" />
    <glyph glyph-name="edotaccent" unicode="&#x117;" horiz-adv-x="1114" 
d="M569 1081q-61 0 -104 43t-43 105q0 61 43 104t104 43q62 0 105 -43t43 -104t-43.5 -104.5t-104.5 -43.5zM1032 487q0 -45 -6 -86h-743q22 -111 108.5 -166t210.5 -55q159 0 299 99l66 -177q-16 -13 -41 -29t-71.5 -38t-114.5 -36.5t-142 -14.5q-125 0 -225 40.5
t-162.5 110.5t-95.5 161t-33 196q0 141 58.5 255.5t171 183t259.5 68.5q200 0 330.5 -139t130.5 -373zM283 582h548q-2 38 -18 75.5t-47 71t-84 54t-119 20.5q-64 0 -118.5 -21t-88 -54t-52.5 -71t-21 -75z" />
    <glyph glyph-name="Eogonek" unicode="&#x118;" horiz-adv-x="1048" 
d="M967 -291l32 -102q-48 -33 -110 -33q-107 0 -170.5 71.5t-63.5 182.5q0 45 18.5 94t47.5 78h-574v1376h787v-196h-590v-394h492v-196h-492v-393h590v-197q-61 0 -112.5 -46t-51.5 -126q0 -61 30.5 -98t74.5 -39.5t92 18.5z" />
    <glyph glyph-name="eogonek" unicode="&#x119;" horiz-adv-x="1114" 
d="M1032 487q0 -45 -6 -86h-743q22 -111 108.5 -166t210.5 -55q159 0 299 99l66 -177q-113 -88 -277 -112q-52 -9 -84.5 -57t-32.5 -105q0 -61 30.5 -98t74.5 -39.5t92 18.5l33 -102q-48 -33 -111 -33q-107 0 -170 71.5t-63 182.5q0 94 55 160q-106 13 -189 57.5
t-135.5 112.5t-80 153t-27.5 181q0 141 58.5 255.5t171 183t259.5 68.5q200 0 330.5 -139t130.5 -373zM283 582h548q-2 38 -18 75.5t-47 71t-84 54t-119 20.5q-64 0 -118.5 -21t-88 -54t-52.5 -71t-21 -75z" />
    <glyph glyph-name="Ecaron" unicode="&#x11a;" horiz-adv-x="1048" 
d="M633 1769h203l-312 -278l-311 278h203l108 -106zM934 1180h-590v-394h492v-196h-492v-393h590v-197h-787v1376h787v-196z" />
    <glyph glyph-name="ecaron" unicode="&#x11b;" horiz-adv-x="1114" 
d="M666 1376h202l-311 -278l-311 278h203l108 -106zM1032 487q0 -45 -6 -86h-743q22 -111 108.5 -166t210.5 -55q159 0 299 99l66 -177q-16 -13 -41 -29t-71.5 -38t-114.5 -36.5t-142 -14.5q-125 0 -225 40.5t-162.5 110.5t-95.5 161t-33 196q0 141 58.5 255.5t171 183
t259.5 68.5q200 0 330.5 -139t130.5 -373zM283 582h548q-2 38 -18 75.5t-47 71t-84 54t-119 20.5q-64 0 -118.5 -21t-88 -54t-52.5 -71t-21 -75z" />
    <glyph glyph-name="Gbreve" unicode="&#x11e;" horiz-adv-x="1540" 
d="M918 1769h114q0 -109 -76.5 -185.5t-185.5 -76.5t-185.5 76.5t-76.5 185.5h115q0 -61 42.5 -104t104.5 -43t105 43t43 104zM1454 752q4 -36 4 -64q0 -193 -86 -354t-240.5 -255.5t-345.5 -94.5q-143 0 -273.5 55.5t-225 150t-150 225t-55.5 273.5t55.5 273.5t150 225
t225 150.5t273.5 56q203 0 360.5 -103.5t248.5 -281.5l-199 -58q-60 113 -167.5 179.5t-242.5 66.5q-138 0 -255 -68t-184.5 -185t-67.5 -255t67.5 -255t184.5 -185t255 -68q182 0 305 105t158 272h-512v197z" />
    <glyph glyph-name="gbreve" unicode="&#x11f;" 
d="M803 1376h115q0 -109 -77 -185.5t-186 -76.5t-185.5 76.5t-76.5 185.5h115q0 -62 43 -104.5t104 -42.5q62 0 105 43t43 104zM901 983h197v-922q0 -298 -141 -450t-384 -152q-247 0 -458 164l98 176q42 -33 68.5 -50.5t74.5 -43t101.5 -37.5t115.5 -12q155 0 241.5 98.5
t86.5 278.5v110q-122 -159 -328 -159q-105 0 -197 40t-156.5 108.5t-101 162t-36.5 197.5q0 140 62 255.5t175.5 183.5t253.5 68q206 0 328 -159v143zM590 180q129 0 220 91.5t91 220.5t-91 220t-220 91t-220 -91t-91 -220t91 -220.5t220 -91.5z" />
    <glyph glyph-name="Gdotaccent" unicode="&#x120;" horiz-adv-x="1540" 
d="M770 1475q-62 0 -104.5 42.5t-42.5 104.5t42.5 104.5t104.5 42.5t105 -43t43 -104t-43 -104t-105 -43zM1454 752q4 -36 4 -64q0 -193 -86 -354t-240.5 -255.5t-345.5 -94.5q-143 0 -273.5 55.5t-225 150t-150 225t-55.5 273.5t55.5 273.5t150 225t225 150.5t273.5 56
q203 0 360.5 -103.5t248.5 -281.5l-199 -58q-60 113 -167.5 179.5t-242.5 66.5q-138 0 -255 -68t-184.5 -185t-67.5 -255t67.5 -255t184.5 -185t255 -68q182 0 305 105t158 272h-512v197z" />
    <glyph glyph-name="gdotaccent" unicode="&#x121;" 
d="M623 1081q-61 0 -104.5 43.5t-43.5 104.5t43 104t105 43q61 0 104 -43t43 -104q0 -62 -43 -105t-104 -43zM901 983h197v-922q0 -298 -141 -450t-384 -152q-247 0 -458 164l98 176q42 -33 68.5 -50.5t74.5 -43t101.5 -37.5t115.5 -12q155 0 241.5 98.5t86.5 278.5v110
q-122 -159 -328 -159q-105 0 -197 40t-156.5 108.5t-101 162t-36.5 197.5q0 140 62 255.5t175.5 183.5t253.5 68q206 0 328 -159v143zM590 180q129 0 220 91.5t91 220.5t-91 220t-220 91t-220 -91t-91 -220t91 -220.5t220 -91.5z" />
    <glyph glyph-name="Gcommaaccent" unicode="&#x122;" horiz-adv-x="1540" 
d="M1454 752q4 -36 4 -64q0 -193 -86 -354t-240.5 -255.5t-345.5 -94.5q-143 0 -273.5 55.5t-225 150t-150 225t-55.5 273.5t55.5 273.5t150 225t225 150.5t273.5 56q203 0 360.5 -103.5t248.5 -281.5l-199 -58q-60 113 -167.5 179.5t-242.5 66.5q-138 0 -255 -68
t-184.5 -185t-67.5 -255t67.5 -255t184.5 -185t255 -68q182 0 305 105t158 272h-512v197zM623 -393l65 262h197l-164 -262h-98z" />
    <glyph glyph-name="gcommaaccent" unicode="&#x123;" 
d="M819 1376l-65 -262h-197l164 262h98zM901 983h197v-922q0 -298 -141 -450t-384 -152q-247 0 -458 164l98 176q42 -33 68.5 -50.5t74.5 -43t101.5 -37.5t115.5 -12q155 0 241.5 98.5t86.5 278.5v110q-122 -159 -328 -159q-105 0 -197 40t-156.5 108.5t-101 162
t-36.5 197.5q0 140 62 255.5t175.5 183.5t253.5 68q206 0 328 -159v143zM590 180q129 0 220 91.5t91 220.5t-91 220t-220 91t-220 -91t-91 -220t91 -220.5t220 -91.5z" />
    <glyph glyph-name="Hbar" unicode="&#x126;" horiz-adv-x="1343" 
d="M1294 1180v-99h-98v-1081h-197v590h-655v-590h-197v1081h-98v99h98v196h197v-196h655v196h197v-196h98zM999 786v295h-655v-295h655z" />
    <glyph glyph-name="hbar" unicode="&#x127;" horiz-adv-x="1179" 
d="M684 999q187 0 284 -115.5t97 -334.5v-549h-197v549q0 126 -50.5 190t-170.5 64q-46 0 -92.5 -18t-86.5 -50t-65.5 -83t-25.5 -111v-541h-197v1147h-131v98h131v197h197v-197h131v-98h-131v-279q113 131 307 131z" />
    <glyph glyph-name="Imacron" unicode="&#x12a;" horiz-adv-x="491" 
d="M524 1540h-557v115h557v-115zM344 0h-197v1376h197v-1376z" />
    <glyph glyph-name="imacron" unicode="&#x12b;" horiz-adv-x="491" 
d="M524 1147h-557v115h557v-115zM147 0v983h197v-983h-197z" />
    <glyph glyph-name="Iogonek" unicode="&#x12e;" horiz-adv-x="491" 
d="M377 -291l33 -102q-48 -33 -111 -33q-107 0 -170 71.5t-63 182.5t81 188v1360h197v-1376q-57 0 -110.5 -53t-53.5 -119q0 -61 30.5 -98t74.5 -39.5t92 18.5z" />
    <glyph glyph-name="iogonek" unicode="&#x12f;" horiz-adv-x="491" 
d="M246 1147q-62 0 -105 43t-43 104q0 62 43 105t105 43q61 0 104 -43t43 -105t-42.5 -104.5t-104.5 -42.5zM377 -291l33 -102q-48 -33 -111 -33q-107 0 -170 71.5t-63 182.5t81 188v967h197v-983q-57 0 -110.5 -53t-53.5 -119q0 -61 30.5 -98t74.5 -39.5t92 18.5z" />
    <glyph glyph-name="Idotaccent" unicode="&#x130;" horiz-adv-x="491" 
d="M246 1475q-62 0 -105 43t-43 104t43 104t105 43t104.5 -42.5t42.5 -104.5t-42.5 -104.5t-104.5 -42.5zM344 0h-197v1376h197v-1376z" />
    <glyph glyph-name="dotlessi" unicode="&#x131;" horiz-adv-x="491" 
d="M147 0v983h197v-983h-197z" />
    <glyph glyph-name="IJ" unicode="&#x132;" horiz-adv-x="1441" 
d="M344 0h-197v1376h197v-1376zM1130 1376h197v-852q0 -270 -124.5 -405t-334.5 -135q-86 0 -171 38.5t-124 88.5l99 168q30 -43 81.5 -71t114.5 -28q133 0 197.5 87t64.5 241v868z" />
    <glyph glyph-name="ij" unicode="&#x133;" horiz-adv-x="983" 
d="M246 1147q-62 0 -105 43t-43 104q0 62 43 105t105 43q61 0 104 -43t43 -105t-42.5 -104.5t-104.5 -42.5zM737 1147q-61 0 -104 42.5t-43 104.5t43 105t104 43t104.5 -43t43.5 -105q0 -61 -43 -104t-105 -43zM147 0v983h197v-983h-197zM639 -66v1049h197v-1020
q0 -72 -9 -133.5t-22.5 -107t-35.5 -83.5t-43 -63t-51 -45.5t-52.5 -31.5t-53.5 -20t-49 -12.5t-45 -7.5l-49 181q48 10 83.5 27.5t66.5 50t47 86.5t16 130z" />
    <glyph glyph-name="Kcommaaccent" unicode="&#x136;" horiz-adv-x="1212" 
d="M524 702l639 -702h-262l-557 606v-606h-197v1376h197v-606l524 606h262zM410 -393l65 262h197l-164 -262h-98z" />
    <glyph glyph-name="kcommaaccent" unicode="&#x137;" horiz-adv-x="1048" 
d="M508 508l524 -508h-262l-426 418v-418h-197v1442h197v-860l393 401h262zM360 -393l66 262h197l-164 -262h-99z" />
    <glyph glyph-name="Lacute" unicode="&#x139;" horiz-adv-x="983" 
d="M147 1507l164 262h230l-262 -262h-132zM344 197h557v-197h-754v1376h197v-1179z" />
    <glyph glyph-name="lacute" unicode="&#x13a;" horiz-adv-x="491" 
d="M147 1573l164 262h230l-262 -262h-132zM147 1442h197v-1442h-197v1442z" />
    <glyph glyph-name="Lcommaaccent" unicode="&#x13b;" horiz-adv-x="983" 
d="M344 197h557v-197h-754v1376h197v-1179zM344 -393l66 262h196l-164 -262h-98z" />
    <glyph glyph-name="lcommaaccent" unicode="&#x13c;" horiz-adv-x="491" 
d="M147 1442h197v-1442h-197v1442zM82 -393l65 262h197l-164 -262h-98z" />
    <glyph glyph-name="Lcaron" unicode="&#x13d;" horiz-adv-x="1015" 
d="M344 197h557v-197h-754v1376h197v-1179zM639 1114l66 262h196l-164 -262h-98z" />
    <glyph glyph-name="lcaron" unicode="&#x13e;" horiz-adv-x="720" 
d="M147 1442h197v-1442h-197v1442zM410 1114l65 262h197l-164 -262h-98z" />
    <glyph glyph-name="Ldot" unicode="&#x13f;" horiz-adv-x="1015" 
d="M344 197h557v-197h-754v1376h197v-1179zM786 623q-62 0 -104.5 42.5t-42.5 104.5q0 63 42.5 105.5t104.5 42.5q63 0 105.5 -42.5t42.5 -105.5q0 -62 -42.5 -104.5t-105.5 -42.5z" />
    <glyph glyph-name="ldot" unicode="&#x140;" horiz-adv-x="786" 
d="M147 1442h197v-1442h-197v1442zM590 623q-63 0 -105.5 42.5t-42.5 104.5q0 63 42.5 105.5t105.5 42.5t105 -42.5t42 -105.5q0 -62 -42 -104.5t-105 -42.5z" />
    <glyph glyph-name="Lslash" unicode="&#x141;" horiz-adv-x="1015" 
d="M377 197h557v-197h-754v627l-131 -37v98l131 37v651h197v-598l131 37v-98l-131 -37v-483z" />
    <glyph glyph-name="lslash" unicode="&#x142;" horiz-adv-x="557" 
d="M508 815v-98l-131 -37v-680h-197v627l-131 -37v98l131 37v717h197v-664z" />
    <glyph glyph-name="Nacute" unicode="&#x143;" horiz-adv-x="1441" 
d="M573 1507l164 262h230l-262 -262h-132zM1294 -33l-950 975v-942h-197v1409l951 -975v942h196v-1409z" />
    <glyph glyph-name="nacute" unicode="&#x144;" horiz-adv-x="1146" 
d="M426 1114l164 262h229l-262 -262h-131zM651 999q179 0 280 -110t101 -324v-565h-196v549q0 125 -50.5 189.5t-171.5 64.5q-46 0 -92.5 -18t-86.5 -50t-65.5 -83t-25.5 -111v-541h-197v983h197v-115q113 131 307 131z" />
    <glyph glyph-name="Ncommaaccent" unicode="&#x145;" horiz-adv-x="1441" 
d="M1294 -33l-950 975v-942h-197v1409l951 -975v942h196v-1409zM557 -393l66 262h196l-164 -262h-98z" />
    <glyph glyph-name="ncommaaccent" unicode="&#x146;" horiz-adv-x="1146" 
d="M651 999q179 0 280 -110t101 -324v-565h-196v549q0 125 -50.5 189.5t-171.5 64.5q-46 0 -92.5 -18t-86.5 -50t-65.5 -83t-25.5 -111v-541h-197v983h197v-115q113 131 307 131zM410 -393l65 262h197l-164 -262h-98z" />
    <glyph glyph-name="Ncaron" unicode="&#x147;" horiz-adv-x="1441" 
d="M829 1769h203l-311 -278l-311 278h202l109 -106zM1294 -33l-950 975v-942h-197v1409l951 -975v942h196v-1409z" />
    <glyph glyph-name="ncaron" unicode="&#x148;" horiz-adv-x="1146" 
d="M653 1376h203l-311 -278l-312 278h203l109 -106zM651 999q179 0 280 -110t101 -324v-565h-196v549q0 125 -50.5 189.5t-171.5 64.5q-46 0 -92.5 -18t-86.5 -50t-65.5 -83t-25.5 -111v-541h-197v983h197v-115q113 131 307 131z" />
    <glyph glyph-name="Eng" unicode="&#x14a;" horiz-adv-x="1441" 
d="M1098 1376h196v-1413q0 -92 -14.5 -167t-35 -124.5t-54.5 -87.5t-62.5 -59t-70 -36t-65 -20t-58.5 -10l-49 181q48 10 83.5 27.5t66.5 50t47 86.5t16 130v234l-754 774v-942h-197v1409l951 -975v942z" />
    <glyph glyph-name="eng" unicode="&#x14b;" horiz-adv-x="1146" 
d="M651 999q179 0 280 -110t101 -324v-602q0 -92 -14.5 -167t-35 -124.5t-54.5 -87.5t-62.5 -59t-70 -36t-65 -20t-58.5 -10l-49 181q48 10 83.5 27.5t66.5 50t47 86.5t16 130v615q0 125 -50.5 189.5t-171.5 64.5q-46 0 -92.5 -18t-86.5 -50t-65.5 -83t-25.5 -111v-541h-197
v983h197v-115q113 131 307 131z" />
    <glyph glyph-name="Omacron" unicode="&#x14c;" horiz-adv-x="1572" 
d="M1065 1540h-557v115h557v-115zM786 1393q191 0 353.5 -94.5t257 -257t94.5 -353.5q0 -143 -56 -273.5t-150.5 -225t-225 -150t-273.5 -55.5t-273.5 55.5t-225 150t-150 225t-55.5 273.5t55.5 273.5t150 225t225 150.5t273.5 56zM786 180q212 0 360 148t148 360t-148 360
t-360 148t-359.5 -148t-147.5 -360t147.5 -360t359.5 -148z" />
    <glyph glyph-name="omacron" unicode="&#x14d;" horiz-adv-x="1179" 
d="M868 1147h-557v115h557v-115zM590 999q138 0 255 -67.5t185 -184.5t68 -255t-68 -255t-185 -185t-255 -68t-255 68t-185 185t-68 255t68 255t185 184.5t255 67.5zM590 180q127 0 219 92t92 220t-91.5 219.5t-219.5 91.5t-219.5 -91.5t-91.5 -219.5t92 -220t219 -92z" />
    <glyph glyph-name="Ohungarumlaut" unicode="&#x150;" horiz-adv-x="1572" 
d="M492 1507l65 262h213l-164 -262h-114zM950 1507l66 262h213l-164 -262h-115zM786 1393q191 0 353.5 -94.5t257 -257t94.5 -353.5q0 -143 -56 -273.5t-150.5 -225t-225 -150t-273.5 -55.5t-273.5 55.5t-225 150t-150 225t-55.5 273.5t55.5 273.5t150 225t225 150.5
t273.5 56zM786 180q212 0 360 148t148 360t-148 360t-360 148t-359.5 -148t-147.5 -360t147.5 -360t359.5 -148z" />
    <glyph glyph-name="ohungarumlaut" unicode="&#x151;" horiz-adv-x="1179" 
d="M295 1114l65 262h213l-163 -262h-115zM754 1114l65 262h213l-164 -262h-114zM590 999q138 0 255 -67.5t185 -184.5t68 -255t-68 -255t-185 -185t-255 -68t-255 68t-185 185t-68 255t68 255t185 184.5t255 67.5zM590 180q127 0 219 92t92 220t-91.5 219.5t-219.5 91.5
t-219.5 -91.5t-91.5 -219.5t92 -220t219 -92z" />
    <glyph glyph-name="OE" unicode="&#x152;" horiz-adv-x="2195" 
d="M2081 1180h-590v-394h491v-196h-491v-393h590v-197h-787v201q-99 -102 -230.5 -159.5t-277.5 -57.5q-143 0 -273.5 55.5t-225 150t-150 225t-55.5 273.5t55.5 273.5t150 225t225 150.5t273.5 56q146 0 277.5 -57.5t230.5 -159.5v200h787v-196zM786 180q212 0 360 148
t148 360t-148 360t-360 148t-359.5 -148t-147.5 -360t147.5 -360t359.5 -148z" />
    <glyph glyph-name="oe" unicode="&#x153;" horiz-adv-x="1933" 
d="M1851 487q0 -45 -6 -86h-743q22 -111 108.5 -166t210.5 -55q159 0 299 99l66 -177q-16 -13 -41 -29t-71.5 -38t-114.5 -36.5t-142 -14.5q-288 0 -426 196q-70 -91 -175 -143.5t-226 -52.5q-138 0 -255 68t-185 185t-68 255t68 255t185 184.5t255 67.5q121 0 226 -53
t177 -145q65 93 167 145.5t231 52.5q200 0 330 -139t130 -373zM590 180q127 0 219 92t92 220t-91.5 219.5t-219.5 91.5t-219.5 -91.5t-91.5 -219.5t92 -220t219 -92zM1102 582h549q-2 38 -18.5 75.5t-47.5 71t-84 54t-119 20.5q-64 0 -118.5 -21t-88 -54t-52.5 -71t-21 -75z
" />
    <glyph glyph-name="Racute" unicode="&#x154;" horiz-adv-x="1212" 
d="M410 1507l163 262h230l-262 -262h-131zM1130 0h-229l-342 475h-215v-475h-197v1376h426q260 0 392.5 -118.5t132.5 -321.5q0 -162 -85 -281.5t-237 -160.5zM344 1180v-508h293q116 0 190 63t74 189q0 128 -72.5 192t-187.5 64h-297z" />
    <glyph glyph-name="racute" unicode="&#x155;" horiz-adv-x="819" 
d="M229 1114l164 262h230l-263 -262h-131zM344 772q52 107 154 167t239 60v-215q-89 26 -180 -8q-101 -38 -157 -122.5t-56 -215.5v-438h-197v983h197v-211z" />
    <glyph glyph-name="Rcommaaccent" unicode="&#x156;" horiz-adv-x="1212" 
d="M1130 0h-229l-342 475h-215v-475h-197v1376h426q260 0 392.5 -118.5t132.5 -321.5q0 -162 -85 -281.5t-237 -160.5zM344 1180v-508h293q116 0 190 63t74 189q0 128 -72.5 192t-187.5 64h-297zM410 -393l65 262h197l-164 -262h-98z" />
    <glyph glyph-name="rcommaaccent" unicode="&#x157;" horiz-adv-x="819" 
d="M344 772q52 107 154 167t239 60v-215q-89 26 -180 -8q-101 -38 -157 -122.5t-56 -215.5v-438h-197v983h197v-211zM98 -393l66 262h196l-163 -262h-99z" />
    <glyph glyph-name="Rcaron" unicode="&#x158;" horiz-adv-x="1212" 
d="M649 1769h203l-311 -278l-312 278h203l109 -106zM1130 0h-229l-342 475h-215v-475h-197v1376h426q260 0 392.5 -118.5t132.5 -321.5q0 -162 -85 -281.5t-237 -160.5zM344 1180v-508h293q116 0 190 63t74 189q0 128 -72.5 192t-187.5 64h-297z" />
    <glyph glyph-name="rcaron" unicode="&#x159;" horiz-adv-x="819" 
d="M535 1376h202l-311 -278l-311 278h202l109 -106zM344 772q52 107 154 167t239 60v-215q-89 26 -180 -8q-101 -38 -157 -122.5t-56 -215.5v-438h-197v983h197v-211z" />
    <glyph glyph-name="Sacute" unicode="&#x15a;" horiz-adv-x="1212" 
d="M508 1507l164 262h229l-262 -262h-131zM637 803q255 -49 374 -140.5t119 -259.5q0 -184 -141.5 -301.5t-378.5 -117.5q-93 0 -180 21.5t-143.5 49.5t-105.5 63.5t-68.5 55t-30.5 33.5l98 176q87 -96 200 -149.5t234 -53.5q153 0 236.5 57.5t83.5 157.5q0 156 -313 211
q-140 24 -237.5 61.5t-152.5 88t-78.5 108t-23.5 129.5q0 174 131 287t365 113q35 0 72.5 -4t104 -18t137.5 -50.5t130 -91.5l-94 -178q-149 145 -354 145q-141 0 -218 -51.5t-77 -143.5q0 -77 71.5 -121t239.5 -77z" />
    <glyph glyph-name="sacute" unicode="&#x15b;" horiz-adv-x="983" 
d="M377 1114l164 262h229l-262 -262h-131zM543 606q104 -20 177 -52t111 -73.5t54 -83t16 -90.5q0 -149 -102 -236t-291 -87q-143 0 -260.5 47t-165.5 92l78 192q57 -57 156.5 -95t185.5 -40q92 -1 147.5 29t55.5 76q0 52 -46.5 79t-146.5 46q-158 28 -246 71.5t-119.5 98.5
t-31.5 139q0 124 109.5 202t289.5 78q182 0 356 -94l-67 -184q-39 28 -122 54.5t-167 27.5q-52 1 -95.5 -6t-75.5 -27.5t-32 -52.5q0 -12 3.5 -22.5t13 -19t18 -15t25 -12.5t28 -10.5t34 -9.5t34.5 -7.5t38 -7.5t38 -7z" />
    <glyph glyph-name="Scedilla" unicode="&#x15e;" horiz-adv-x="1212" 
d="M1130 403q0 -168 -121 -283.5t-329 -133.5l-80 -84q115 26 200 -44t85 -186q0 -126 -88.5 -210.5t-221.5 -84.5q-162 0 -247 129l98 93q52 -91 164 -91q78 0 129 47.5t51 118.5q0 61 -42.5 103.5t-104.5 42.5q-78 0 -138 -49l-65 98l115 119q-80 8 -154 31.5t-122.5 50
t-90.5 58.5t-59.5 49.5t-26.5 29.5l98 176q87 -96 200 -149.5t234 -53.5q153 0 236.5 57.5t83.5 157.5q0 156 -313 211q-140 24 -237.5 61.5t-152.5 88t-78.5 108t-23.5 129.5q0 174 131 287t365 113q35 0 72.5 -4t104 -18t137.5 -50.5t130 -91.5l-94 -178
q-149 145 -354 145q-141 0 -218 -51.5t-77 -143.5q0 -77 71.5 -121t239.5 -77q255 -49 374 -140.5t119 -259.5z" />
    <glyph glyph-name="scedilla" unicode="&#x15f;" horiz-adv-x="983" 
d="M901 307q0 -133 -82 -217.5t-235 -101.5l-82 -86q115 26 199.5 -44t84.5 -186q0 -126 -88 -210.5t-221 -84.5q-163 0 -248 129l99 93q52 -91 164 -91q78 0 129 47.5t51 118.5q0 61 -43 103.5t-105 42.5q-77 0 -137 -49l-65 98l112 119q-121 12 -217.5 54.5t-134.5 80.5
l78 192q57 -57 156.5 -95t185.5 -40q92 -1 147.5 29t55.5 76q0 52 -46.5 79t-146.5 46q-158 28 -246 71.5t-119.5 98.5t-31.5 139q0 124 109.5 202t289.5 78q182 0 356 -94l-67 -184q-39 28 -122 54.5t-167 27.5q-52 1 -95.5 -6t-75.5 -27.5t-32 -52.5q0 -12 3.5 -22.5
t13 -19t18 -15t25 -12.5t28 -10.5t34 -9.5t34.5 -7.5t38 -7.5t38 -7q104 -20 177 -52t111 -73.5t54 -83t16 -90.5z" />
    <glyph glyph-name="Scaron" unicode="&#x160;" horiz-adv-x="1212" 
d="M715 1769h203l-312 -278l-311 278h203l108 -106zM637 803q255 -49 374 -140.5t119 -259.5q0 -184 -141.5 -301.5t-378.5 -117.5q-93 0 -180 21.5t-143.5 49.5t-105.5 63.5t-68.5 55t-30.5 33.5l98 176q87 -96 200 -149.5t234 -53.5q153 0 236.5 57.5t83.5 157.5
q0 156 -313 211q-140 24 -237.5 61.5t-152.5 88t-78.5 108t-23.5 129.5q0 174 131 287t365 113q35 0 72.5 -4t104 -18t137.5 -50.5t130 -91.5l-94 -178q-149 145 -354 145q-141 0 -218 -51.5t-77 -143.5q0 -77 71.5 -121t239.5 -77z" />
    <glyph glyph-name="scaron" unicode="&#x161;" horiz-adv-x="983" 
d="M608 1376h203l-311 -278l-312 278h203l109 -106zM543 606q104 -20 177 -52t111 -73.5t54 -83t16 -90.5q0 -149 -102 -236t-291 -87q-143 0 -260.5 47t-165.5 92l78 192q57 -57 156.5 -95t185.5 -40q92 -1 147.5 29t55.5 76q0 52 -46.5 79t-146.5 46q-158 28 -246 71.5
t-119.5 98.5t-31.5 139q0 124 109.5 202t289.5 78q182 0 356 -94l-67 -184q-39 28 -122 54.5t-167 27.5q-52 1 -95.5 -6t-75.5 -27.5t-32 -52.5q0 -12 3.5 -22.5t13 -19t18 -15t25 -12.5t28 -10.5t34 -9.5t34.5 -7.5t38 -7.5t38 -7z" />
    <glyph glyph-name="uni0162" unicode="&#x162;" horiz-adv-x="1081" 
d="M639 0h-12l-92 -98q115 26 199.5 -44t84.5 -186q0 -126 -88 -210.5t-221 -84.5q-163 0 -248 129l98 93q52 -91 164 -91q78 0 129.5 47.5t51.5 118.5q0 61 -43 103.5t-105 42.5q-77 0 -137 -49l-66 98l125 131h-37v1180h-360v196h917v-196h-360v-1180z" />
    <glyph glyph-name="uni0163" unicode="&#x163;" horiz-adv-x="720" 
d="M371 -98q115 26 199.5 -44t84.5 -186q0 -126 -88 -210.5t-221 -84.5q-163 0 -248 129l99 93q52 -91 163 -91q78 0 129.5 47.5t51.5 118.5q0 61 -43 103.5t-105 42.5q-77 0 -137 -49l-66 98l140 149q-117 72 -117 304v464h-131v197h131v393h197v-393h196v-197h-196v-409
q0 -47 1.5 -71.5t10.5 -54.5t27 -44q61 -45 157 4v-199q-60 -28 -145 -28h-15z" />
    <glyph glyph-name="Tcaron" unicode="&#x164;" horiz-adv-x="1081" 
d="M649 1769h203l-311 -278l-312 278h203l109 -106zM82 1376h917v-196h-360v-1180h-197v1180h-360v196z" />
    <glyph glyph-name="tcaron" unicode="&#x165;" horiz-adv-x="1015" 
d="M213 322v464h-131v197h131v393h197v-393h196v-197h-196v-409q0 -47 1.5 -71.5t10.5 -54.5t27 -44q61 -45 157 4v-199q-60 -28 -145 -28q-68 0 -117 26t-77 73t-41 106t-13 133zM672 1114l65 262h197l-164 -262h-98z" />
    <glyph glyph-name="Tbar" unicode="&#x166;" horiz-adv-x="1081" 
d="M999 1180h-360v-492h131v-98h-131v-590h-197v590h-131v98h131v492h-360v196h917v-196z" />
    <glyph glyph-name="tbar" unicode="&#x167;" horiz-adv-x="720" 
d="M606 786h-196v-180h196v-98h-196v-131q0 -47 1.5 -71.5t10.5 -54.5t27 -44q61 -45 157 4v-199q-60 -28 -145 -28q-68 0 -117 26t-77 73t-41 106t-13 133v186h-131v98h131v180h-131v197h131v393h197v-393h196v-197z" />
    <glyph glyph-name="Umacron" unicode="&#x16a;" horiz-adv-x="1277" 
d="M918 1540h-558v115h558v-115zM967 1376h196v-770q0 -138 -31.5 -250.5t-95 -196t-164.5 -129.5t-233 -46q-135 0 -237 46t-164 130t-92.5 195.5t-30.5 250.5v770h196v-835q0 -162 87.5 -261.5t240.5 -99.5q152 0 240 99.5t88 261.5v835z" />
    <glyph glyph-name="umacron" unicode="&#x16b;" horiz-adv-x="1146" 
d="M844 1147h-557v115h557v-115zM496 -16q-179 0 -280 110t-101 324v565h196v-549q0 -126 50.5 -190t170.5 -64q62 0 123 29.5t104.5 91.5t43.5 141v541h196v-983h-196v115q-113 -131 -307 -131z" />
    <glyph glyph-name="Uring" unicode="&#x16e;" horiz-adv-x="1277" 
d="M639 1933q95 0 162 -67t67 -162t-67 -162t-162 -67t-162 67t-67 162t67 162t162 67zM639 1589q47 0 81 34t34 81t-34 81t-81 34t-81 -34t-34 -81t34 -81t81 -34zM967 1376h196v-770q0 -138 -31.5 -250.5t-95 -196t-164.5 -129.5t-233 -46q-135 0 -237 46t-164 130
t-92.5 195.5t-30.5 250.5v770h196v-835q0 -162 87.5 -261.5t240.5 -99.5q152 0 240 99.5t88 261.5v835z" />
    <glyph glyph-name="uring" unicode="&#x16f;" horiz-adv-x="1146" 
d="M565 1507q95 0 162.5 -67t67.5 -162t-67.5 -162t-162.5 -67t-162 67t-67 162t67 162t162 67zM565 1163q47 0 81 34t34 81t-34 81t-81 34t-80.5 -34t-33.5 -81t33.5 -81t80.5 -34zM496 -16q-179 0 -280 110t-101 324v565h196v-549q0 -126 50.5 -190t170.5 -64
q62 0 123 29.5t104.5 91.5t43.5 141v541h196v-983h-196v115q-113 -131 -307 -131z" />
    <glyph glyph-name="Uhungarumlaut" unicode="&#x170;" horiz-adv-x="1277" 
d="M328 1507l65 262h213l-164 -262h-114zM786 1507l66 262h213l-164 -262h-115zM967 1376h196v-770q0 -138 -31.5 -250.5t-95 -196t-164.5 -129.5t-233 -46q-135 0 -237 46t-164 130t-92.5 195.5t-30.5 250.5v770h196v-835q0 -162 87.5 -261.5t240.5 -99.5q152 0 240 99.5
t88 261.5v835z" />
    <glyph glyph-name="uhungarumlaut" unicode="&#x171;" horiz-adv-x="1146" 
d="M250 1114l65 262h213l-163 -262h-115zM709 1114l65 262h213l-164 -262h-114zM496 -16q-179 0 -280 110t-101 324v565h196v-549q0 -126 50.5 -190t170.5 -64q62 0 123 29.5t104.5 91.5t43.5 141v541h196v-983h-196v115q-113 -131 -307 -131z" />
    <glyph glyph-name="Uogonek" unicode="&#x172;" horiz-adv-x="1277" 
d="M967 1376h196v-770q0 -173 -47.5 -304t-151 -215t-255.5 -99q-41 -5 -72 -51.5t-31 -108.5q0 -61 30.5 -98t74.5 -39.5t92 18.5l33 -102q-48 -33 -111 -33q-107 0 -170 71.5t-63 182.5q0 41 15 86t40 76q-147 19 -245.5 103.5t-142.5 213t-44 299.5v770h196v-835
q0 -162 87.5 -261.5t240.5 -99.5q152 0 240 99.5t88 261.5v835z" />
    <glyph glyph-name="uogonek" unicode="&#x173;" horiz-adv-x="1146" 
d="M1032 -291l33 -102q-48 -33 -111 -33q-107 0 -170 71.5t-63 182.5q0 110 82 188v99q-113 -131 -307 -131q-179 0 -280 110t-101 324v565h196v-549q0 -126 50.5 -190t170.5 -64q62 0 123 29.5t104.5 91.5t43.5 141v541h196v-983q-57 0 -110 -53t-53 -119q0 -61 30.5 -98
t74 -39.5t91.5 18.5z" />
    <glyph glyph-name="Wcircumflex" unicode="&#x174;" horiz-adv-x="1966" 
d="M1092 1507l-109 107l-109 -107h-202l311 279l311 -279h-202zM1720 1376h213l-573 -1409l-377 951l-377 -951l-573 1409h213l360 -905l377 938l377 -938z" />
    <glyph glyph-name="wcircumflex" unicode="&#x175;" horiz-adv-x="1540" 
d="M879 1114l-109 107l-108 -107h-203l311 279l311 -279h-202zM1294 983h213l-426 -1016l-311 631l-311 -631l-426 1016h213l229 -586l295 619l295 -619z" />
    <glyph glyph-name="Ycircumflex" unicode="&#x176;" horiz-adv-x="1212" 
d="M715 1507l-109 107l-108 -107h-203l311 279l312 -279h-203zM975 1376h221l-491 -819v-557h-197v557l-492 819h222l368 -631z" />
    <glyph glyph-name="ycircumflex" unicode="&#x177;" horiz-adv-x="1048" 
d="M633 1114l-109 107l-108 -107h-203l311 279l312 -279h-203zM813 983h219l-665 -1507h-215l262 587l-398 920h220l288 -680z" />
    <glyph glyph-name="Ydieresis" unicode="&#x178;" horiz-adv-x="1212" 
d="M426 1507q-47 0 -81 34t-34 81q0 49 33.5 82t81.5 33q50 0 82.5 -32.5t32.5 -82.5q0 -48 -33 -81.5t-82 -33.5zM786 1507q-47 0 -80.5 34t-33.5 81q0 49 33 82t81 33q50 0 82.5 -32.5t32.5 -82.5q0 -48 -33 -81.5t-82 -33.5zM975 1376h221l-491 -819v-557h-197v557
l-492 819h222l368 -631z" />
    <glyph glyph-name="Zacute" unicode="&#x179;" 
d="M508 1507l164 262h229l-262 -262h-131zM1130 0h-1048l741 1180h-708v196h1048l-741 -1179h708v-197z" />
    <glyph glyph-name="zacute" unicode="&#x17a;" horiz-adv-x="983" 
d="M377 1114l164 262h229l-262 -262h-131zM868 0h-786l483 786h-450v197h786l-487 -786h454v-197z" />
    <glyph glyph-name="Zdotaccent" unicode="&#x17b;" 
d="M623 1475q-62 0 -105 43t-43 104t43 104t105 43q61 0 104 -42.5t43 -104.5t-43 -104.5t-104 -42.5zM1130 0h-1048l741 1180h-708v196h1048l-741 -1179h708v-197z" />
    <glyph glyph-name="zdotaccent" unicode="&#x17c;" horiz-adv-x="983" 
d="M492 1081q-62 0 -105 43.5t-43 104.5t43 104t105 43t104.5 -43t42.5 -104q0 -62 -43 -105t-104 -43zM868 0h-786l483 786h-450v197h786l-487 -786h454v-197z" />
    <glyph glyph-name="Zcaron" unicode="&#x17d;" 
d="M731 1769h203l-311 -278l-312 278h203l109 -106zM1130 0h-1048l741 1180h-708v196h1048l-741 -1179h708v-197z" />
    <glyph glyph-name="zcaron" unicode="&#x17e;" horiz-adv-x="983" 
d="M600 1376h203l-311 -278l-312 278h203l109 -106zM868 0h-786l483 786h-450v197h786l-487 -786h454v-197z" />
    <glyph glyph-name="Aringacute" unicode="&#x1fa;" horiz-adv-x="1343" 
d="M573 1999l164 262h230l-262 -262h-132zM672 1933q95 0 162 -67t67 -162t-67 -162t-162 -67t-162.5 67t-67.5 162t67.5 162t162.5 67zM672 1589q47 0 80.5 34t33.5 81t-33.5 81t-80.5 34t-81 -34t-34 -81t34 -81t81 -34zM1114 0l-133 295h-619l-133 -295h-213l656 1409
l655 -1409h-213zM453 492h438l-219 483z" />
    <glyph glyph-name="aringacute" unicode="&#x1fb;" 
d="M541 1573l164 262h229l-262 -262h-131zM672 1507q95 0 162 -67t67 -162t-67 -162t-162 -67t-162.5 67t-67.5 162t67.5 162t162.5 67zM672 1163q47 0 80.5 34t33.5 81t-33.5 81t-80.5 34t-81 -34t-34 -81t34 -81t81 -34zM901 983h197v-983h-197v143q-122 -159 -328 -159
q-105 0 -197 40t-156.5 108.5t-101 162t-36.5 197.5q0 140 62 255.5t175.5 183.5t253.5 68q206 0 328 -159v143zM590 180q129 0 220 91.5t91 220.5t-91 220t-220 91t-220 -91t-91 -220t91 -220.5t220 -91.5z" />
    <glyph glyph-name="AEacute" unicode="&#x1fc;" horiz-adv-x="1638" 
d="M770 1507l164 262h229l-262 -262h-131zM1524 1180h-590v-394h491v-196h-491v-393h590v-197h-787v295h-356l-152 -295h-213l721 1376h787v-196zM483 492h254v491z" />
    <glyph glyph-name="aeacute" unicode="&#x1fd;" horiz-adv-x="1802" 
d="M770 1114l164 262h229l-262 -262h-131zM1720 487q0 -45 -6 -86h-743q22 -111 108.5 -166t210.5 -55q159 0 299 99l66 -177q-16 -13 -41 -29t-71.5 -38t-114.5 -36.5t-142 -14.5q-187 0 -319 92v-76h-197v100q-44 -55 -137.5 -85.5t-181.5 -30.5q-166 0 -267.5 89.5
t-101.5 237.5q0 182 199 271q66 29 160.5 36.5t173.5 0t155 -24.5q0 64 -26.5 108t-70.5 64.5t-84.5 28.5t-84.5 8q-161 0 -289 -92l-92 157q20 16 50 33.5t81.5 42t122 40t143.5 15.5q142 0 230 -40t141 -119q140 159 369 159q200 0 330 -139t130 -373zM971 582h549
q-2 38 -18.5 75.5t-47.5 71t-84 54t-119 20.5q-64 0 -118.5 -21t-88 -54t-52.5 -71t-21 -75zM770 344v78q-156 36 -265.5 29.5t-167.5 -45t-58 -99.5q0 -59 51 -93t125 -34t146 21t120.5 59.5t48.5 83.5z" />
    <glyph glyph-name="Scommaaccent" unicode="&#x218;" horiz-adv-x="1212" 
d="M637 803q255 -49 374 -140.5t119 -259.5q0 -184 -141.5 -301.5t-378.5 -117.5q-93 0 -180 21.5t-143.5 49.5t-105.5 63.5t-68.5 55t-30.5 33.5l98 176q87 -96 200 -149.5t234 -53.5q153 0 236.5 57.5t83.5 157.5q0 156 -313 211q-140 24 -237.5 61.5t-152.5 88t-78.5 108
t-23.5 129.5q0 174 131 287t365 113q35 0 72.5 -4t104 -18t137.5 -50.5t130 -91.5l-94 -178q-149 145 -354 145q-141 0 -218 -51.5t-77 -143.5q0 -77 71.5 -121t239.5 -77zM442 -393l66 262h197l-164 -262h-99z" />
    <glyph glyph-name="scommaaccent" unicode="&#x219;" horiz-adv-x="983" 
d="M543 606q104 -20 177 -52t111 -73.5t54 -83t16 -90.5q0 -149 -102 -236t-291 -87q-143 0 -260.5 47t-165.5 92l78 192q57 -57 156.5 -95t185.5 -40q92 -1 147.5 29t55.5 76q0 52 -46.5 79t-146.5 46q-158 28 -246 71.5t-119.5 98.5t-31.5 139q0 124 109.5 202t289.5 78
q182 0 356 -94l-67 -184q-39 28 -122 54.5t-167 27.5q-52 1 -95.5 -6t-75.5 -27.5t-32 -52.5q0 -12 3.5 -22.5t13 -19t18 -15t25 -12.5t28 -10.5t34 -9.5t34.5 -7.5t38 -7.5t38 -7zM344 -393l66 262h196l-164 -262h-98z" />
    <glyph glyph-name="uni021A" unicode="&#x21a;" horiz-adv-x="1081" 
d="M82 1376h917v-196h-360v-1180h-197v1180h-360v196zM377 -393l65 262h197l-164 -262h-98z" />
    <glyph glyph-name="uni021B" unicode="&#x21b;" horiz-adv-x="720" 
d="M213 322v464h-131v197h131v393h197v-393h196v-197h-196v-409q0 -47 1.5 -71.5t10.5 -54.5t27 -44q61 -45 157 4v-199q-60 -28 -145 -28q-68 0 -117 26t-77 73t-41 106t-13 133zM213 -393l66 262h196l-164 -262h-98z" />
    <glyph glyph-name="circumflex" unicode="&#x2c6;" horiz-adv-x="1671" 
d="M944 1507l-108 107l-109 -107h-203l312 279l311 -279h-203z" />
    <glyph glyph-name="caron" unicode="&#x2c7;" horiz-adv-x="1671" 
d="M944 1769h203l-311 -278l-312 278h203l109 -106z" />
    <glyph glyph-name="breve" unicode="&#x2d8;" horiz-adv-x="1671" 
d="M983 1769h115q0 -109 -76.5 -185.5t-185.5 -76.5t-186 76.5t-77 185.5h115q0 -61 43 -104t105 -43t104.5 43t42.5 104z" />
    <glyph glyph-name="dotaccent" unicode="&#x2d9;" horiz-adv-x="1671" 
d="M836 1475q-62 0 -105 43t-43 104t43 104t105 43t104.5 -42.5t42.5 -104.5t-42.5 -104.5t-104.5 -42.5z" />
    <glyph glyph-name="ring" unicode="&#x2da;" horiz-adv-x="1671" 
d="M836 1933q95 0 162 -67t67 -162t-67 -162t-162 -67t-162.5 67t-67.5 162t67.5 162t162.5 67zM836 1589q47 0 80.5 34t33.5 81t-33.5 81t-80.5 34t-81 -34t-34 -81t34 -81t81 -34z" />
    <glyph glyph-name="ogonek" unicode="&#x2db;" horiz-adv-x="1671" 
d="M762 0h213q-61 0 -112.5 -46t-51.5 -126q0 -61 30.5 -98t74.5 -39.5t92 18.5l32 -102q-48 -33 -110 -33q-107 0 -170.5 71.5t-63.5 182.5q0 45 18.5 94t47.5 78z" />
    <glyph glyph-name="tilde" unicode="&#x2dc;" horiz-adv-x="1671" 
d="M1071 1704l125 -43q-75 -154 -221 -154q-51 0 -148 37q-57 24 -96.5 31t-73.5 -8.5t-57 -59.5l-125 47q81 150 225 150q10 0 20 -1t18 -2t18.5 -3.5t16 -4t17.5 -5.5t15.5 -5.5t17.5 -7t17 -6.5q80 -39 139 -34.5t92 69.5z" />
    <glyph glyph-name="hungarumlaut" unicode="&#x2dd;" horiz-adv-x="1671" 
d="M500 1507l65 262h213l-164 -262h-114zM958 1507l66 262h213l-164 -262h-115z" />
    <glyph glyph-name="Alphatonos" unicode="&#x386;" horiz-adv-x="1343" 
d="M1114 0l-133 295h-619l-133 -295h-213l656 1409l655 -1409h-213zM82 1114l65 262h197l-164 -262h-98zM453 492h438l-219 483z" />
    <glyph glyph-name="Epsilontonos" unicode="&#x388;" horiz-adv-x="1310" 
d="M82 1114l65 262h197l-164 -262h-98zM1196 1180h-590v-394h492v-196h-492v-393h590v-197h-786v1376h786v-196z" />
    <glyph glyph-name="Etatonos" unicode="&#x389;" horiz-adv-x="1605" 
d="M82 1114l65 262h197l-164 -262h-98zM1262 1376h196v-1376h-196v590h-656v-590h-196v1376h196v-590h656v590z" />
    <glyph glyph-name="Iotatonos" unicode="&#x38a;" horiz-adv-x="753" 
d="M82 1114l65 262h197l-164 -262h-98zM606 0h-196v1376h196v-1376z" />
    <glyph glyph-name="Omicrontonos" unicode="&#x38c;" horiz-adv-x="1703" 
d="M918 1393q143 0 273.5 -56t225 -150.5t150 -225t55.5 -273.5t-55.5 -273.5t-150 -225t-225 -150t-273.5 -55.5t-273.5 55.5t-225 150t-150.5 225t-56 273.5q0 191 94.5 353.5t257 257t353.5 94.5zM82 1114l65 262h197l-164 -262h-98zM918 180q212 0 359.5 148t147.5 360
t-147.5 360t-359.5 148t-360 -148t-148 -360t148 -360t360 -148z" />
    <glyph glyph-name="Upsilontonos" unicode="&#x38e;" horiz-adv-x="1605" 
d="M82 1114l65 262h197l-164 -262h-98zM1368 1376h221l-491 -819v-557h-197v557l-491 819h221l368 -631z" />
    <glyph glyph-name="Omegatonos" unicode="&#x38f;" horiz-adv-x="1671" 
d="M1556 803q0 -98 -27.5 -187.5t-79 -164.5t-111 -135t-136.5 -119h354v-197h-589v229q60 41 106.5 76t103.5 90.5t94 110.5t63 128.5t26 151.5q0 128 -63.5 222.5t-166.5 141t-229 46.5t-229 -46.5t-166.5 -141t-63.5 -222.5q0 -78 26 -151.5t63 -128.5t94.5 -110.5
t103.5 -90.5t107 -76v-229h-590v197h354q-77 59 -136.5 119t-111 135t-79 164.5t-27.5 187.5q0 87 24.5 170t77.5 159.5t128 134t185 92t240 34.5t240 -34.5t185 -92t128 -134t77.5 -159.5t24.5 -170zM82 1114l65 262h197l-164 -262h-98z" />
    <glyph glyph-name="iotadieresistonos" unicode="&#x390;" horiz-adv-x="557" 
d="M180 1114l66 262h196l-163 -262h-99zM0 1114q-47 0 -81 34t-34 81q0 49 33.5 81.5t81.5 32.5q50 0 82.5 -32.5t32.5 -81.5q0 -48 -33 -81.5t-82 -33.5zM557 1114q-47 0 -81 34t-34 81q0 49 33.5 81.5t81.5 32.5q50 0 82.5 -32.5t32.5 -81.5q0 -48 -33 -81.5t-82 -33.5z
M344 983v-688q0 -90 27 -118t104 -13v-164q-62 -16 -129 -16q-199 0 -199 272v727h197z" />
    <glyph glyph-name="Alpha" unicode="&#x391;" horiz-adv-x="1343" 
d="M1114 0l-133 295h-619l-133 -295h-213l656 1409l655 -1409h-213zM453 492h438l-219 483z" />
    <glyph glyph-name="Beta" unicode="&#x392;" horiz-adv-x="1179" 
d="M868 739q59 -14 104 -47.5t72 -78.5t40.5 -95.5t13.5 -103.5q0 -182 -120 -298t-323 -116h-508v1376h412q226 0 349.5 -92t123.5 -268q0 -99 -47 -174.5t-117 -102.5zM344 1180v-344h246q246 0 246 172t-246 172h-246zM623 197q132 0 205 55t73 166t-73 166t-205 55h-279
v-442h279z" />
    <glyph glyph-name="Gamma" unicode="&#x393;" horiz-adv-x="1015" 
d="M934 1180h-590v-1180h-197v1376h787v-196z" />
    <glyph glyph-name="uni0394" unicode="&#x394;" horiz-adv-x="1343" 
d="M672 1409l655 -1409h-1311zM319 197h705l-352 778z" />
    <glyph glyph-name="Epsilon" unicode="&#x395;" horiz-adv-x="1048" 
d="M934 1180h-590v-394h492v-196h-492v-393h590v-197h-787v1376h787v-196z" />
    <glyph glyph-name="Zeta" unicode="&#x396;" 
d="M1130 0h-1048l741 1180h-708v196h1048l-741 -1179h708v-197z" />
    <glyph glyph-name="Eta" unicode="&#x397;" horiz-adv-x="1343" 
d="M999 1376h197v-1376h-197v590h-655v-590h-197v1376h197v-590h655v590z" />
    <glyph glyph-name="Theta" unicode="&#x398;" horiz-adv-x="1572" 
d="M786 1393q191 0 353.5 -94.5t257 -257t94.5 -353.5q0 -143 -56 -273.5t-150.5 -225t-225 -150t-273.5 -55.5t-273.5 55.5t-225 150t-150 225t-55.5 273.5t55.5 273.5t150 225t225 150.5t273.5 56zM786 180q212 0 360 148t148 360t-148 360t-360 148t-359.5 -148
t-147.5 -360t147.5 -360t359.5 -148zM377 639v98h819v-98h-819z" />
    <glyph glyph-name="Iota" unicode="&#x399;" horiz-adv-x="491" 
d="M344 0h-197v1376h197v-1376z" />
    <glyph glyph-name="Kappa" unicode="&#x39a;" horiz-adv-x="1212" 
d="M524 702l639 -702h-262l-557 606v-606h-197v1376h197v-606l524 606h262z" />
    <glyph glyph-name="Lambda" unicode="&#x39b;" horiz-adv-x="1343" 
d="M1114 0l-442 975l-443 -975h-213l656 1409l655 -1409h-213z" />
    <glyph glyph-name="Mu" unicode="&#x39c;" horiz-adv-x="1703" 
d="M852 -33l-438 848l-131 -815h-201l233 1409l537 -1040l537 1040l233 -1409h-201l-131 815z" />
    <glyph glyph-name="Nu" unicode="&#x39d;" horiz-adv-x="1441" 
d="M1294 -33l-950 975v-942h-197v1409l951 -975v942h196v-1409z" />
    <glyph glyph-name="Xi" unicode="&#x39e;" horiz-adv-x="1179" 
d="M115 1180v196h950v-196h-950zM213 590v196h754v-196h-754zM115 0v197h950v-197h-950z" />
    <glyph glyph-name="Omicron" unicode="&#x39f;" horiz-adv-x="1572" 
d="M786 1393q191 0 353.5 -94.5t257 -257t94.5 -353.5q0 -143 -56 -273.5t-150.5 -225t-225 -150t-273.5 -55.5t-273.5 55.5t-225 150t-150 225t-55.5 273.5t55.5 273.5t150 225t225 150.5t273.5 56zM786 180q212 0 360 148t148 360t-148 360t-360 148t-359.5 -148
t-147.5 -360t147.5 -360t359.5 -148z" />
    <glyph glyph-name="Pi" unicode="&#x3a0;" horiz-adv-x="1343" 
d="M1196 1376v-1376h-197v1180h-655v-1180h-197v1376h1049z" />
    <glyph glyph-name="Rho" unicode="&#x3a1;" horiz-adv-x="1179" 
d="M573 1376q260 0 392.5 -118.5t132.5 -321.5q0 -199 -125 -330t-338 -131h-291v-475h-197v1376h426zM637 672q116 0 190 63t74 189q0 127 -79.5 191.5t-196.5 64.5h-281v-508h293z" />
    <glyph glyph-name="Sigma" unicode="&#x3a3;" horiz-adv-x="1179" 
d="M459 1180l344 -492l-344 -491h573v-197h-950l475 688l-475 688h950v-196h-573z" />
    <glyph glyph-name="Tau" unicode="&#x3a4;" horiz-adv-x="1081" 
d="M82 1376h917v-196h-360v-1180h-197v1180h-360v196z" />
    <glyph glyph-name="Upsilon" unicode="&#x3a5;" horiz-adv-x="1212" 
d="M975 1376h221l-491 -819v-557h-197v557l-492 819h222l368 -631z" />
    <glyph glyph-name="Phi" unicode="&#x3a6;" horiz-adv-x="1474" 
d="M1393 721q0 -134 -49 -245.5t-129.5 -183.5t-178 -113.5t-200.5 -47.5v-131h-197v131q-103 6 -200.5 47.5t-178 113.5t-129.5 183.5t-49 245.5q0 136 50 248.5t131.5 183.5t178 111.5t197.5 46.5v131h197v-131q101 -6 197.5 -46.5t178 -111.5t131.5 -183.5t50 -248.5z
M639 319v803q-45 0 -92.5 -13.5t-96 -44.5t-86 -76t-61.5 -114t-24 -153t24 -154t61.5 -114.5t86 -76t96 -44.5t92.5 -13zM836 319q46 0 93.5 13.5t96 44.5t86 75.5t61 114.5t23.5 154t-23.5 153t-61 114t-86 76t-96 44.5t-93.5 13.5v-803z" />
    <glyph glyph-name="Chi" unicode="&#x3a7;" horiz-adv-x="1343" 
d="M1294 0h-237l-385 555l-385 -555h-238l500 711l-467 665h235l355 -512l354 512h236l-467 -665z" />
    <glyph glyph-name="Psi" unicode="&#x3a8;" horiz-adv-x="1605" 
d="M1262 1376h196v-487q0 -125 -28.5 -223.5t-77 -164.5t-121 -112.5t-152 -71.5t-178.5 -38v-279h-196v279q-99 13 -178.5 38t-152.5 71.5t-121.5 112.5t-77 164.5t-28.5 223.5v487h197v-516q0 -103 30.5 -178.5t83.5 -118.5t114 -64t133 -24v901h196v-901q72 3 133 24
t114 64t83.5 118.5t30.5 178.5v516z" />
    <glyph glyph-name="uni03A9" unicode="&#x3a9;" horiz-adv-x="1540" 
d="M1425 803q0 -98 -27.5 -187.5t-79 -164.5t-111 -135t-136.5 -119h354v-197h-589v229q60 41 106.5 76t103.5 90.5t94 110.5t63 128.5t26 151.5q0 128 -63.5 222.5t-166.5 141t-229 46.5t-229 -46.5t-166.5 -141t-63.5 -222.5q0 -78 26 -151.5t63 -128.5t94.5 -110.5
t103.5 -90.5t107 -76v-229h-590v197h354q-77 59 -136.5 119t-111 135t-79 164.5t-27.5 187.5q0 87 24.5 170t77.5 159.5t128 134t185 92t240 34.5t240 -34.5t185 -92t128 -134t77.5 -159.5t24.5 -170z" />
    <glyph glyph-name="Iotadieresis" unicode="&#x3aa;" horiz-adv-x="491" 
d="M66 1507q-47 0 -81 34t-34 81q0 49 33.5 82t81.5 33q49 0 81.5 -32.5t32.5 -82.5q0 -48 -32.5 -81.5t-81.5 -33.5zM426 1507q-47 0 -81 34t-34 81q0 49 33.5 82t81.5 33q50 0 82.5 -32.5t32.5 -82.5q0 -48 -33 -81.5t-82 -33.5zM344 0h-197v1376h197v-1376z" />
    <glyph glyph-name="Upsilondieresis" unicode="&#x3ab;" horiz-adv-x="1212" 
d="M426 1507q-47 0 -81 34t-34 81q0 49 33.5 82t81.5 33q50 0 82.5 -32.5t32.5 -82.5q0 -48 -33 -81.5t-82 -33.5zM786 1507q-47 0 -80.5 34t-33.5 81q0 49 33 82t81 33q50 0 82.5 -32.5t32.5 -82.5q0 -48 -33 -81.5t-82 -33.5zM975 1376h221l-491 -819v-557h-197v557
l-492 819h222l368 -631z" />
    <glyph glyph-name="alphatonos" unicode="&#x3ac;" horiz-adv-x="1310" 
d="M573 1114l66 262h197l-164 -262h-99zM1098 295q0 -90 27 -118t104 -13v-164q-62 -16 -129 -16q-152 0 -187 155q-62 -72 -150 -113.5t-190 -41.5q-105 0 -197 40t-156.5 108.5t-101 162t-36.5 197.5q0 140 62 255.5t175.5 183.5t253.5 68q206 0 328 -159v143h197v-688z
M590 180q129 0 220 91.5t91 220.5t-91 220t-220 91t-220 -91t-91 -220t91 -220.5t220 -91.5z" />
    <glyph glyph-name="epsilontonos" unicode="&#x3ad;" horiz-adv-x="983" 
d="M426 1114l66 262h196l-164 -262h-98zM565 180q142 5 254 84l82 -155q-67 -60 -163 -92.5t-203 -32.5q-89 0 -163 17t-132.5 52.5t-91.5 96t-33 141.5q0 72 42 130t115 87q-69 27 -105 82.5t-36 122.5q0 144 105.5 215t279.5 71q97 0 196 -32.5t181 -94.5l-90 -155
q-63 41 -121 62t-145 24q-99 3 -154 -30t-55 -75q0 -57 80 -91t231 -34v-163q-148 0 -238 -30t-90 -89t71 -86.5t183 -24.5z" />
    <glyph glyph-name="etatonos" unicode="&#x3ae;" horiz-adv-x="1146" 
d="M459 1114l65 262h197l-164 -262h-98zM651 999q179 0 280 -110t101 -324v-1089h-196v1073q0 125 -50.5 189.5t-171.5 64.5q-46 0 -92.5 -18t-86.5 -50t-65.5 -83t-25.5 -111v-541h-197v983h197v-115q113 131 307 131z" />
    <glyph glyph-name="iotatonos" unicode="&#x3af;" horiz-adv-x="557" 
d="M180 1114l66 262h196l-163 -262h-99zM344 983v-688q0 -90 27 -118t104 -13v-164q-62 -16 -129 -16q-199 0 -199 272v727h197z" />
    <glyph glyph-name="upsilondieresistonos" unicode="&#x3b0;" horiz-adv-x="1114" 
d="M410 1114l65 262h197l-164 -262h-98zM229 1114q-47 0 -80.5 34t-33.5 81q0 49 33 81.5t81 32.5q50 0 82.5 -32.5t32.5 -81.5q0 -48 -33 -81.5t-82 -33.5zM786 1114q-47 0 -80.5 34t-33.5 81q0 49 33 81.5t81 32.5q50 0 82.5 -32.5t32.5 -81.5q0 -48 -33 -81.5t-82 -33.5z
M901 983q29 -84 46.5 -142t34.5 -150t17 -175q0 -244 -119.5 -388t-322.5 -144q-218 0 -330 131.5t-112 376.5v491h196v-545q0 -123 69.5 -190.5t176.5 -67.5q118 0 182 84.5t64 222.5q0 133 -24.5 242t-73.5 254h196z" />
    <glyph glyph-name="alpha" unicode="&#x3b1;" horiz-adv-x="1310" 
d="M1098 295q0 -90 27 -118t104 -13v-164q-62 -16 -129 -16q-152 0 -187 155q-62 -72 -150 -113.5t-190 -41.5q-105 0 -197 40t-156.5 108.5t-101 162t-36.5 197.5q0 140 62 255.5t175.5 183.5t253.5 68q206 0 328 -159v143h197v-688zM590 180q129 0 220 91.5t91 220.5
t-91 220t-220 91t-220 -91t-91 -220t91 -220.5t220 -91.5z" />
    <glyph glyph-name="beta" unicode="&#x3b2;" horiz-adv-x="1114" 
d="M756 786q125 -29 200.5 -132.5t75.5 -235.5q0 -84 -29.5 -161t-85 -138.5t-145.5 -98t-201 -36.5q-64 0 -138.5 18.5t-121.5 46.5v-573h-196v1523q0 93 22 168.5t54.5 122t79 81t85.5 50.5t84.5 25.5t65.5 10.5t39 1q80 0 147 -22t112 -58.5t76.5 -84.5t45.5 -99.5
t14 -103.5q0 -56 -18.5 -108.5t-47.5 -90.5t-59 -64.5t-59 -40.5zM311 254q62 -44 151.5 -62t172.5 -6.5t142 70t59 154.5q0 73 -45.5 130.5t-120.5 82.5q-97 32 -293 32v197q176 0 278 76q39 30 60.5 71t21.5 82q0 87 -60 134t-149 47q-93 0 -155 -65.5t-62 -164.5v-778z
" />
    <glyph glyph-name="gamma" unicode="&#x3b3;" horiz-adv-x="1015" 
d="M999 983l-393 -805v-702h-196v702l-394 805h213l279 -573l278 573h213z" />
    <glyph glyph-name="delta" unicode="&#x3b4;" horiz-adv-x="1179" 
d="M877 911q101 -73 161 -182.5t60 -236.5q0 -138 -68 -255t-185 -185t-255 -68t-255 68t-185 185t-68 255q0 154 84 279.5t221 184.5q-78 51 -112.5 122t-26.5 141q5 48 29.5 92t68 81.5t115 60t160.5 22.5q140 0 313 -66l-33 -180q-203 78 -354 49q-65 -13 -90.5 -49
t-1 -80.5t95.5 -79.5q27 -13 93 -39.5t124.5 -54.5t108.5 -64zM590 180q127 0 219 92t92 220t-91.5 219.5t-219.5 91.5t-219.5 -91.5t-91.5 -219.5t92 -220t219 -92z" />
    <glyph glyph-name="epsilon" unicode="&#x3b5;" horiz-adv-x="983" 
d="M565 180q142 5 254 84l82 -155q-67 -60 -163 -92.5t-203 -32.5q-89 0 -163 17t-132.5 52.5t-91.5 96t-33 141.5q0 72 42 130t115 87q-69 27 -105 82.5t-36 122.5q0 144 105.5 215t279.5 71q97 0 196 -32.5t181 -94.5l-90 -155q-63 41 -121 62t-145 24q-99 3 -154 -30
t-55 -75q0 -57 80 -91t231 -34v-163q-148 0 -238 -30t-90 -89t71 -86.5t183 -24.5z" />
    <glyph glyph-name="zeta" unicode="&#x3b6;" horiz-adv-x="1015" 
d="M934 1180q-169 -104 -309.5 -232.5t-227 -265.5t-86.5 -248q0 -78 22.5 -132t60.5 -81.5t87 -43t103.5 -20t109 -7.5t103.5 -11t87 -25t60.5 -55t22.5 -96q0 -34 -5 -64t-9.5 -42.5t-18.5 -53.5h-164q23 86 5.5 133.5t-87.5 47.5q-76 0 -135.5 3.5t-121.5 14.5t-107 29.5
t-86.5 49.5t-67 73.5t-40.5 102.5t-15 136q0 126 76 272.5t198 277t273 237.5h-449v196h721v-196z" />
    <glyph glyph-name="eta" unicode="&#x3b7;" horiz-adv-x="1146" 
d="M651 999q179 0 280 -110t101 -324v-1089h-196v1073q0 125 -50.5 189.5t-171.5 64.5q-46 0 -92.5 -18t-86.5 -50t-65.5 -83t-25.5 -111v-541h-197v983h197v-115q113 131 307 131z" />
    <glyph glyph-name="theta" unicode="&#x3b8;" horiz-adv-x="1179" 
d="M590 1393q146 0 255.5 -95.5t164.5 -254t55 -355.5t-55 -355t-164.5 -253.5t-255.5 -95.5q-148 0 -257.5 95.5t-163.5 253.5t-54 355t54.5 355t164 254t256.5 96zM590 1196q-79 0 -141 -61t-96.5 -164.5t-39.5 -233.5h553q-5 130 -39.5 233.5t-96 164.5t-140.5 61z
M590 180q79 0 140.5 61t96 164.5t39.5 233.5h-553q5 -130 39.5 -233.5t96.5 -164.5t141 -61z" />
    <glyph glyph-name="iota" unicode="&#x3b9;" horiz-adv-x="557" 
d="M344 983v-688q0 -90 27 -118t104 -13v-164q-62 -16 -129 -16q-199 0 -199 272v727h197z" />
    <glyph glyph-name="kappa" unicode="&#x3ba;" horiz-adv-x="1048" 
d="M508 508l524 -508h-262l-426 418v-418h-197v983h197v-401l393 401h262z" />
    <glyph glyph-name="lambda" unicode="&#x3bb;" horiz-adv-x="1212" 
d="M874 344q84 -224 256 -180v-164q-41 -16 -106 -16q-64 0 -116 21.5t-89.5 56.5t-72.5 94.5t-59 118t-54 145.5l-84 248l-252 -668h-215l364 920l-79 194q-43 104 -108.5 152t-143.5 28v164q44 17 110 17q35 0 68 -10t60 -24.5t54 -41.5t46.5 -50.5t42 -63t36.5 -67
t34 -74.5t30 -73.5t29 -75.5z" />
    <glyph glyph-name="uni03BC" unicode="&#x3bc;" horiz-adv-x="1179" 
d="M836 983h196v-983h-196v115q-113 -131 -308 -131q-107 0 -184 39v-547h-197v1507h197v-549q0 -126 50.5 -190t170.5 -64q62 0 123 29.5t104.5 91.5t43.5 141v541z" />
    <glyph glyph-name="nu" unicode="&#x3bd;" horiz-adv-x="983" 
d="M492 -33l-476 1016h213l263 -573l262 573h213z" />
    <glyph glyph-name="xi" unicode="&#x3be;" horiz-adv-x="1081" 
d="M311 362q0 -77 61.5 -126t178.5 -56q18 -1 65.5 -3t77.5 -3.5t78 -7.5t79.5 -14.5t69 -24.5t59.5 -37.5t37 -54t15 -72.5q0 -75 -33 -160h-163q12 58 6.5 98t-58.5 61.5t-163 21.5q-264 0 -385 94.5t-121 283.5q0 111 72 203t194 148q-240 98 -234 352q5 186 132.5 298
t343.5 112q94 0 187.5 -36.5t156.5 -95.5l-66 -163q-123 98 -278 98q-140 0 -209.5 -62t-69.5 -163q0 -130 130 -194t362 -64v-181q-232 0 -378.5 -68t-146.5 -184z" />
    <glyph glyph-name="omicron" unicode="&#x3bf;" horiz-adv-x="1179" 
d="M590 999q138 0 255 -67.5t185 -184.5t68 -255t-68 -255t-185 -185t-255 -68t-255 68t-185 185t-68 255t68 255t185 184.5t255 67.5zM590 180q127 0 219 92t92 220t-91.5 219.5t-219.5 91.5t-219.5 -91.5t-91.5 -219.5t92 -220t219 -92z" />
    <glyph glyph-name="pi" unicode="&#x3c0;" 
d="M1130 786h-163v-491q0 -90 27 -118t104 -13v-164q-62 -16 -129 -16q-199 0 -199 272v530h-360v-786h-197v786h-131v197h1048v-197z" />
    <glyph glyph-name="rho" unicode="&#x3c1;" 
d="M655 999q138 0 255 -67.5t185 -184.5t68 -255t-67.5 -255.5t-180.5 -185t-243 -67.5q-91 0 -178.5 33.5t-149.5 99.5v-641h-197v1016q0 138 68 255t185 184.5t255 67.5zM655 180q127 0 219.5 92t92.5 220q0 127 -92 219t-220 92q-127 0 -219 -91.5t-92 -219.5t92 -220
t219 -92z" />
    <glyph glyph-name="uni03C2" unicode="&#x3c2;" horiz-adv-x="1081" 
d="M608 180q51 -2 90.5 -5.5t93 -11t92.5 -23t74.5 -38t54.5 -58t19 -81.5q0 -75 -33 -160h-163q18 81 11 108q-12 52 -106 66q-47 7 -118 7q-128 0 -231.5 39.5t-170.5 109t-103 161.5t-36 198q0 141 62 255.5t182.5 183t279.5 68.5q205 0 328 -112l-84 -182
q-101 98 -242 98q-136 0 -232.5 -91t-96.5 -218q0 -134 86.5 -221t242.5 -93z" />
    <glyph glyph-name="sigma" unicode="&#x3c3;" 
d="M1163 983v-197h-202q63 -47 100 -133.5t37 -185.5q0 -196 -149.5 -339.5t-358.5 -143.5q-138 0 -255 66.5t-185 181.5t-68 251t68 251t185 182t255 67h573zM590 180q128 0 219.5 89.5t91.5 213.5t-91.5 213.5t-219.5 89.5t-219.5 -89.5t-91.5 -213.5t91.5 -213.5
t219.5 -89.5z" />
    <glyph glyph-name="tau" unicode="&#x3c4;" horiz-adv-x="950" 
d="M868 786h-295v-491q0 -90 27.5 -118t104.5 -13v-164q-62 -16 -130 -16q-198 0 -198 272v530h-295v197h786v-197z" />
    <glyph glyph-name="upsilon" unicode="&#x3c5;" horiz-adv-x="1114" 
d="M901 983q29 -84 46.5 -142t34.5 -150t17 -175q0 -244 -119.5 -388t-322.5 -144q-218 0 -330 131.5t-112 376.5v491h196v-545q0 -123 69.5 -190.5t176.5 -67.5q118 0 182 84.5t64 222.5q0 133 -24.5 242t-73.5 254h196z" />
    <glyph glyph-name="phi" unicode="&#x3c6;" horiz-adv-x="1343" 
d="M770 1049q217 -25 354.5 -170t137.5 -363t-137.5 -362.5t-354.5 -169.5v-508h-197v508q-217 25 -354 169.5t-137 362.5t137 363t354 170v393h197v-393zM573 172v688q-130 -18 -212 -107.5t-82 -236.5t82 -236.5t212 -107.5zM1065 516q0 147 -82.5 236.5t-212.5 107.5
v-688q130 18 212.5 107.5t82.5 236.5z" />
    <glyph glyph-name="chi" unicode="&#x3c7;" horiz-adv-x="1081" 
d="M657 522l375 -522h-233l-258 371l-258 -371h-234l375 522l-344 461h233l228 -324l227 324h233z" />
    <glyph glyph-name="psi" unicode="&#x3c8;" horiz-adv-x="1474" 
d="M1163 983h197v-446q0 -129 -38 -229.5t-108.5 -167t-165 -105t-212.5 -51.5v-508h-197v508q-118 13 -212.5 51.5t-165 105t-108.5 167t-38 229.5v446h196v-455q0 -72 21.5 -131t54.5 -96t78 -64t87 -39.5t87 -17.5v803h197v-803q45 5 87 17.5t87 39.5t78 64t54 96t21 131
v455z" />
    <glyph glyph-name="omega" unicode="&#x3c9;" horiz-adv-x="1474" 
d="M1243 983q117 -252 117 -483q0 -255 -104.5 -385.5t-272.5 -130.5q-59 0 -106.5 19t-74 41.5t-65.5 64.5q-39 -42 -65 -64.5t-73.5 -41.5t-106.5 -19q-170 0 -273.5 130t-103.5 386q0 233 116 483h185q-105 -277 -105 -496q0 -143 50.5 -225t130.5 -82q63 0 105 43.5
t42 149.5v479h197v-479q0 -106 42 -149.5t105 -43.5q80 0 130 82t50 225q0 222 -104 496h184z" />
    <glyph glyph-name="iotadieresis" unicode="&#x3ca;" horiz-adv-x="557" 
d="M66 1114q-47 0 -81 34t-34 81q0 49 33.5 81.5t81.5 32.5q50 0 82 -32.5t32 -81.5q0 -48 -32.5 -81.5t-81.5 -33.5zM426 1114q-47 0 -81 34t-34 81q0 49 33.5 81.5t81.5 32.5q50 0 82.5 -32.5t32.5 -81.5q0 -48 -33 -81.5t-82 -33.5zM344 983v-688q0 -90 27 -118t104 -13
v-164q-62 -16 -129 -16q-199 0 -199 272v727h197z" />
    <glyph glyph-name="upsilondieresis" unicode="&#x3cb;" horiz-adv-x="1114" 
d="M311 1114q-47 0 -80.5 34t-33.5 81q0 49 33 81.5t81 32.5q50 0 82.5 -32.5t32.5 -81.5q0 -48 -33 -81.5t-82 -33.5zM672 1114q-47 0 -81 34t-34 81q0 49 33.5 81.5t81.5 32.5q50 0 82 -32.5t32 -81.5q0 -48 -32.5 -81.5t-81.5 -33.5zM901 983q29 -84 46.5 -142t34.5 -150
t17 -175q0 -244 -119.5 -388t-322.5 -144q-218 0 -330 131.5t-112 376.5v491h196v-545q0 -123 69.5 -190.5t176.5 -67.5q118 0 182 84.5t64 222.5q0 133 -24.5 242t-73.5 254h196z" />
    <glyph glyph-name="omicrontonos" unicode="&#x3cc;" horiz-adv-x="1179" 
d="M508 1114l65 262h197l-164 -262h-98zM590 999q138 0 255 -67.5t185 -184.5t68 -255t-68 -255t-185 -185t-255 -68t-255 68t-185 185t-68 255t68 255t185 184.5t255 67.5zM590 180q127 0 219 92t92 220t-91.5 219.5t-219.5 91.5t-219.5 -91.5t-91.5 -219.5t92 -220
t219 -92z" />
    <glyph glyph-name="upsilontonos" unicode="&#x3cd;" horiz-adv-x="1114" 
d="M410 1114l65 262h197l-164 -262h-98zM901 983q29 -84 46.5 -142t34.5 -150t17 -175q0 -244 -119.5 -388t-322.5 -144q-218 0 -330 131.5t-112 376.5v491h196v-545q0 -123 69.5 -190.5t176.5 -67.5q118 0 182 84.5t64 222.5q0 133 -24.5 242t-73.5 254h196z" />
    <glyph glyph-name="omegatonos" unicode="&#x3ce;" horiz-adv-x="1474" 
d="M655 1114l66 262h197l-164 -262h-99zM1243 983q117 -252 117 -483q0 -255 -104.5 -385.5t-272.5 -130.5q-59 0 -106.5 19t-74 41.5t-65.5 64.5q-39 -42 -65 -64.5t-73.5 -41.5t-106.5 -19q-170 0 -273.5 130t-103.5 386q0 233 116 483h185q-105 -277 -105 -496
q0 -143 50.5 -225t130.5 -82q63 0 105 43.5t42 149.5v479h197v-479q0 -106 42 -149.5t105 -43.5q80 0 130 82t50 225q0 222 -104 496h184z" />
    <glyph glyph-name="uni0401" unicode="&#x401;" horiz-adv-x="1048" 
d="M344 1507q-47 0 -81 34t-34 81q0 49 33.5 82t81.5 33q50 0 82.5 -32.5t32.5 -82.5q0 -48 -33 -81.5t-82 -33.5zM705 1507q-47 0 -81 34t-34 81q0 49 33.5 82t81.5 33q49 0 81.5 -32.5t32.5 -82.5q0 -48 -32.5 -81.5t-81.5 -33.5zM934 1180h-590v-394h492v-196h-492v-393
h590v-197h-787v1376h787v-196z" />
    <glyph glyph-name="uni0402" unicode="&#x402;" horiz-adv-x="1376" 
d="M852 819q212 0 311 -110t99 -332v-70q0 -72 -9 -133.5t-22.5 -107t-35.5 -83.5t-43 -63t-51 -45.5t-52.5 -31.5t-53.5 -20t-49 -12.5t-45 -7.5l-49 181q48 10 83.5 27.5t66.5 50t47 87t16 130.5v81q0 152 -56.5 215.5t-189.5 63.5q-141 0 -278 -82v-557h-197v1180h-262
v196h852v-196h-393v-443q60 33 147 57.5t164 24.5z" />
    <glyph glyph-name="uni0403" unicode="&#x403;" horiz-adv-x="1015" 
d="M344 1507l164 262h229l-262 -262h-131zM934 1180h-590v-1180h-197v1376h787v-196z" />
    <glyph glyph-name="uni0404" unicode="&#x404;" horiz-adv-x="1310" 
d="M786 180q114 0 200 37t159 113l84 -185q-84 -77 -199 -119t-231 -42q-146 0 -278.5 55.5t-228.5 150t-153 225t-57 273.5t57 273.5t153 225t228.5 150.5t278.5 56q116 0 231 -41.5t199 -118.5l-84 -184q-73 74 -159 110.5t-200 36.5q-188 0 -330 -121.5t-171 -304.5h616
v-164h-616q29 -183 171 -304.5t330 -121.5z" />
    <glyph glyph-name="uni0405" unicode="&#x405;" horiz-adv-x="1212" 
d="M637 803q255 -49 374 -140.5t119 -259.5q0 -184 -141.5 -301.5t-378.5 -117.5q-93 0 -180 21.5t-143.5 49.5t-105.5 63.5t-68.5 55t-30.5 33.5l98 176q87 -96 200 -149.5t234 -53.5q153 0 236.5 57.5t83.5 157.5q0 156 -313 211q-140 24 -237.5 61.5t-152.5 88t-78.5 108
t-23.5 129.5q0 174 131 287t365 113q35 0 72.5 -4t104 -18t137.5 -50.5t130 -91.5l-94 -178q-149 145 -354 145q-141 0 -218 -51.5t-77 -143.5q0 -77 71.5 -121t239.5 -77z" />
    <glyph glyph-name="uni0406" unicode="&#x406;" horiz-adv-x="491" 
d="M344 0h-197v1376h197v-1376z" />
    <glyph glyph-name="uni0407" unicode="&#x407;" horiz-adv-x="491" 
d="M66 1507q-47 0 -81 34t-34 81q0 49 33.5 82t81.5 33q49 0 81.5 -32.5t32.5 -82.5q0 -48 -32.5 -81.5t-81.5 -33.5zM426 1507q-47 0 -81 34t-34 81q0 49 33.5 82t81.5 33q50 0 82.5 -32.5t32.5 -82.5q0 -48 -33 -81.5t-82 -33.5zM344 0h-197v1376h197v-1376z" />
    <glyph glyph-name="uni0408" unicode="&#x408;" horiz-adv-x="950" 
d="M639 1376h197v-852q0 -270 -124.5 -405t-334.5 -135q-86 0 -171 38.5t-124 88.5l98 168q30 -43 82 -71t115 -28q133 0 197.5 87t64.5 241v868z" />
    <glyph glyph-name="uni0409" unicode="&#x409;" horiz-adv-x="2097" 
d="M1520 786q249 0 372 -106.5t123 -284.5q0 -180 -125.5 -287.5t-382.5 -107.5h-409v1180h-525v-607q0 -94 -1 -139.5t-6.5 -117.5t-19 -109.5t-37 -83t-61 -73t-90.5 -46.5q-43 -15 -93 -18.5t-85.5 1.5t-64.5 13v197q47 -15 102 -12t88 24q72 47 72 190v977h917v-590h226
zM1526 197q85 0 148 18t104 64t41 116q0 195 -299 195h-226v-393h232z" />
    <glyph glyph-name="uni040A" unicode="&#x40a;" horiz-adv-x="1998" 
d="M1421 786q249 0 372.5 -106.5t123.5 -284.5q0 -180 -125.5 -287.5t-382.5 -107.5h-410v590h-655v-590h-197v1376h197v-590h655v590h197v-590h225zM1427 197q85 0 148 18t104 64t41 116q0 195 -299 195h-225v-393h231z" />
    <glyph glyph-name="uni040B" unicode="&#x40b;" horiz-adv-x="1376" 
d="M852 819q212 0 311 -110t99 -332v-377h-197v360q0 152 -56.5 215.5t-189.5 63.5q-141 0 -278 -82v-557h-197v1180h-262v196h852v-196h-393v-443q60 33 147 57.5t164 24.5z" />
    <glyph glyph-name="uni040C" unicode="&#x40c;" horiz-adv-x="1212" 
d="M393 1507l164 262h229l-262 -262h-131zM524 702l639 -702h-262l-557 606v-606h-197v1376h197v-606l524 606h262z" />
    <glyph glyph-name="uni040E" unicode="&#x40e;" 
d="M786 1769h115q0 -109 -76.5 -185.5t-185.5 -76.5t-185.5 76.5t-76.5 185.5h115q0 -61 43 -104t104 -43t104 43t43 104zM1008 1376h221l-778 -1376h-222l308 528l-488 848h221l369 -674z" />
    <glyph glyph-name="uni040F" unicode="&#x40f;" horiz-adv-x="1343" 
d="M999 1376h197v-1376h-426v-262h-197v262h-426v1376h197v-1179h655v1179z" />
    <glyph glyph-name="uni0410" unicode="&#x410;" horiz-adv-x="1343" 
d="M1114 0l-133 295h-619l-133 -295h-213l656 1409l655 -1409h-213zM453 492h438l-219 483z" />
    <glyph glyph-name="uni0411" unicode="&#x411;" horiz-adv-x="1212" 
d="M618 868q252 0 382 -116t130 -316q0 -202 -132 -319t-392 -117h-459v1376h852v-196h-655v-312h274zM641 197q132 0 212.5 56.5t80.5 182.5q0 236 -299 236h-291v-475h297z" />
    <glyph glyph-name="uni0412" unicode="&#x412;" horiz-adv-x="1179" 
d="M868 739q59 -14 104 -47.5t72 -78.5t40.5 -95.5t13.5 -103.5q0 -182 -120 -298t-323 -116h-508v1376h412q226 0 349.5 -92t123.5 -268q0 -99 -47 -174.5t-117 -102.5zM344 1180v-344h246q246 0 246 172t-246 172h-246zM623 197q132 0 205 55t73 166t-73 166t-205 55h-279
v-442h279z" />
    <glyph glyph-name="uni0413" unicode="&#x413;" horiz-adv-x="1015" 
d="M934 1180h-590v-1180h-197v1376h787v-196z" />
    <glyph glyph-name="uni0414" unicode="&#x414;" horiz-adv-x="1540" 
d="M1229 197h196v-459h-196v262h-950v-262h-197v459q52 30 92 65t71.5 68t54.5 88.5t39 96t26 123t16 138t8.5 172.5t3 194.5t0.5 233.5h836v-1179zM399 197h633v983h-442q0 -381 -39.5 -613t-151.5 -370z" />
    <glyph glyph-name="uni0415" unicode="&#x415;" horiz-adv-x="1048" 
d="M934 1180h-590v-394h492v-196h-492v-393h590v-197h-787v1376h787v-196z" />
    <glyph glyph-name="uni0416" unicode="&#x416;" horiz-adv-x="1933" 
d="M1251 723l633 -723h-262l-506 582l-51 -58v-524h-197v524l-51 58l-506 -582h-262l633 723l-600 653h262l524 -590v590h197v-590l524 590h262z" />
    <glyph glyph-name="uni0417" unicode="&#x417;" horiz-adv-x="1146" 
d="M442 598v180q79 0 148 13t125 38.5t88.5 69.5t32.5 100q0 95 -78.5 146t-208.5 51q-119 0 -199.5 -39.5t-152.5 -107.5l-86 163q83 82 199.5 131.5t246.5 49.5q133 0 239.5 -45t171 -136t64.5 -213q0 -91 -48 -172.5t-142 -117.5q105 -35 164 -119t59 -197
q0 -127 -67.5 -221t-181 -141t-257.5 -47q-294 0 -477 188l98 168q134 -160 369 -160q136 0 227.5 56.5t91.5 156.5q0 62 -34 104t-97.5 63t-133 29.5t-161.5 8.5z" />
    <glyph glyph-name="uni0418" unicode="&#x418;" horiz-adv-x="1441" 
d="M147 -33v1409h197v-942l950 975v-1409h-196v942z" />
    <glyph glyph-name="uni0419" unicode="&#x419;" horiz-adv-x="1441" 
d="M868 1769h115q0 -109 -76.5 -185.5t-185.5 -76.5t-185.5 76.5t-76.5 185.5h114q0 -61 43 -104t105 -43q61 0 104 43t43 104zM147 -33v1409h197v-942l950 975v-1409h-196v942z" />
    <glyph glyph-name="uni041A" unicode="&#x41a;" horiz-adv-x="1212" 
d="M524 702l639 -702h-262l-557 606v-606h-197v1376h197v-606l524 606h262z" />
    <glyph glyph-name="uni041B" unicode="&#x41b;" horiz-adv-x="1441" 
d="M1294 1376v-1376h-196v1180h-525v-607q0 -94 -1 -139.5t-6.5 -117.5t-19 -109.5t-37 -83t-61 -73t-90.5 -46.5q-43 -15 -93 -18.5t-85.5 1.5t-64.5 13v197q47 -15 102 -12t88 24q72 47 72 190v977h917z" />
    <glyph glyph-name="uni041C" unicode="&#x41c;" horiz-adv-x="1703" 
d="M852 -33l-438 848l-131 -815h-201l233 1409l537 -1040l537 1040l233 -1409h-201l-131 815z" />
    <glyph glyph-name="uni041D" unicode="&#x41d;" horiz-adv-x="1343" 
d="M999 1376h197v-1376h-197v590h-655v-590h-197v1376h197v-590h655v590z" />
    <glyph glyph-name="uni041E" unicode="&#x41e;" horiz-adv-x="1572" 
d="M786 1393q191 0 353.5 -94.5t257 -257t94.5 -353.5q0 -143 -56 -273.5t-150.5 -225t-225 -150t-273.5 -55.5t-273.5 55.5t-225 150t-150 225t-55.5 273.5t55.5 273.5t150 225t225 150.5t273.5 56zM786 180q212 0 360 148t148 360t-148 360t-360 148t-359.5 -148
t-147.5 -360t147.5 -360t359.5 -148z" />
    <glyph glyph-name="uni041F" unicode="&#x41f;" horiz-adv-x="1343" 
d="M1196 1376v-1376h-197v1180h-655v-1180h-197v1376h1049z" />
    <glyph glyph-name="uni0420" unicode="&#x420;" horiz-adv-x="1179" 
d="M573 1376q260 0 392.5 -118.5t132.5 -321.5q0 -199 -125 -330t-338 -131h-291v-475h-197v1376h426zM637 672q116 0 190 63t74 189q0 127 -79.5 191.5t-196.5 64.5h-281v-508h293z" />
    <glyph glyph-name="uni0421" unicode="&#x421;" horiz-adv-x="1310" 
d="M786 180q114 0 200 37t159 113l84 -185q-84 -77 -199 -119t-231 -42q-146 0 -278.5 55.5t-228.5 150t-153 225t-57 273.5t57 273.5t153 225t228.5 150.5t278.5 56q116 0 231 -41.5t199 -118.5l-84 -184q-73 74 -159 110.5t-200 36.5q-138 0 -255 -68t-184.5 -185
t-67.5 -255t67.5 -255t184.5 -185t255 -68z" />
    <glyph glyph-name="uni0422" unicode="&#x422;" horiz-adv-x="1081" 
d="M82 1376h917v-196h-360v-1180h-197v1180h-360v196z" />
    <glyph glyph-name="uni0423" unicode="&#x423;" 
d="M1008 1376h221l-778 -1376h-222l308 528l-488 848h221l369 -674z" />
    <glyph glyph-name="uni0424" unicode="&#x424;" horiz-adv-x="1605" 
d="M1524 721q0 -166 -82.5 -301.5t-225 -212t-315.5 -76.5v-131h-196v131q-173 0 -315.5 76.5t-225 212t-82.5 301.5q0 169 84.5 305t226.5 210.5t312 74.5v131h196v-131q170 0 312 -74.5t226.5 -210.5t84.5 -305zM705 319v803q-85 0 -159 -22.5t-135 -68.5t-96.5 -125.5
t-35.5 -184.5q0 -106 35.5 -186t97 -125.5t135 -68t158.5 -22.5zM901 319q69 0 130 13.5t116 44t94.5 76t62.5 114.5t23 154q0 105 -34.5 184.5t-95.5 125.5t-135 68.5t-161 22.5v-803z" />
    <glyph glyph-name="uni0425" unicode="&#x425;" horiz-adv-x="1343" 
d="M1294 0h-237l-385 555l-385 -555h-238l500 711l-467 665h235l355 -512l354 512h236l-467 -665z" />
    <glyph glyph-name="uni0426" unicode="&#x426;" horiz-adv-x="1507" 
d="M1196 197h197v-459h-197v262h-1049v1376h197v-1179h655v1179h197v-1179z" />
    <glyph glyph-name="uni0427" unicode="&#x427;" 
d="M573 475q-68 0 -130 13t-123 46.5t-105.5 84t-72 131.5t-27.5 184v442h196v-426q0 -149 79.5 -213.5t232.5 -64.5q71 0 140.5 16t103.5 32l34 17v639h197v-1376h-197v549q-166 -74 -328 -74z" />
    <glyph glyph-name="uni0428" unicode="&#x428;" horiz-adv-x="1835" 
d="M1491 1376h197v-1376h-1541v1376h197v-1179h475v1179h197v-1179h475v1179z" />
    <glyph glyph-name="uni0429" unicode="&#x429;" horiz-adv-x="1998" 
d="M1688 197h196v-459h-196v262h-1541v1376h197v-1179h475v1179h197v-1179h475v1179h197v-1179z" />
    <glyph glyph-name="uni042A" unicode="&#x42a;" horiz-adv-x="1376" 
d="M782 868q252 0 382 -116t130 -316q0 -202 -132 -319t-392 -117h-426v1180h-262v196h459v-508h241zM805 197q132 0 212.5 56.5t80.5 182.5q0 236 -299 236h-258v-475h264z" />
    <glyph glyph-name="uni042B" unicode="&#x42b;" horiz-adv-x="1638" 
d="M586 868q252 0 382 -116t130 -316q0 -202 -132.5 -319t-392.5 -117h-426v1376h197v-508h242zM1491 0h-197v1376h197v-1376zM608 197q132 0 212.5 56.5t80.5 182.5q0 236 -299 236h-258v-475h264z" />
    <glyph glyph-name="uni042C" unicode="&#x42c;" horiz-adv-x="1179" 
d="M586 868q252 0 382 -116t130 -316q0 -202 -132.5 -319t-392.5 -117h-426v1376h197v-508h242zM608 197q132 0 212.5 56.5t80.5 182.5q0 236 -299 236h-258v-475h264z" />
    <glyph glyph-name="uni042D" unicode="&#x42d;" horiz-adv-x="1310" 
d="M524 180q124 0 232.5 56t179.5 153t90 217h-616v164h616q-19 120 -90 217t-179.5 153t-232.5 56q-114 0 -199.5 -36.5t-158.5 -110.5l-84 184q84 77 199 118.5t231 41.5q146 0 278.5 -56t228.5 -150.5t153 -225t57 -273.5t-57 -273.5t-153 -225t-228.5 -150t-278.5 -55.5
q-116 0 -231 42t-199 119l84 185q73 -76 158.5 -113t199.5 -37z" />
    <glyph glyph-name="uni042E" unicode="&#x42e;" horiz-adv-x="2064" 
d="M1278 1393q143 0 273.5 -56t225 -150.5t150 -225t55.5 -273.5t-55.5 -273.5t-150 -225t-225 -150t-273.5 -55.5q-175 0 -326.5 80t-249.5 218.5t-122 307.5h-236v-590h-197v1376h197v-590h236q24 169 122 308t249.5 219t326.5 80zM1278 180q212 0 360 148t148 360
t-148 360t-360 148t-360 -148t-148 -360t148 -360t360 -148z" />
    <glyph glyph-name="uni042F" unicode="&#x42f;" horiz-adv-x="1212" 
d="M82 0l354 494q-151 41 -236 160.5t-85 281.5q0 203 132 321.5t392 118.5h426v-1376h-197v475h-215l-342 -475h-229zM868 1180h-297q-115 0 -187.5 -64t-72.5 -192q0 -126 74 -189t190 -63h293v508z" />
    <glyph glyph-name="uni0430" unicode="&#x430;" 
d="M901 983h197v-983h-197v143q-122 -159 -328 -159q-105 0 -197 40t-156.5 108.5t-101 162t-36.5 197.5q0 140 62 255.5t175.5 183.5t253.5 68q206 0 328 -159v143zM590 180q129 0 220 91.5t91 220.5t-91 220t-220 91t-220 -91t-91 -220t91 -220.5t220 -91.5z" />
    <glyph glyph-name="uni0431" unicode="&#x431;" horiz-adv-x="1179" 
d="M590 999q138 0 255 -67.5t185 -184.5t68 -255t-68 -255t-185 -185t-255 -68t-255 68t-185 185.5t-68 256.5q0 378 352 661q26 21 78 61.5t72 57.5t51.5 47.5t50.5 58t35 62.5h213q-24 -166 -219 -289q-17 -11 -65 -40.5t-73 -46t-59 -42.5t-55 -49q55 24 127 24zM590 180
q127 0 219 92t92 220t-91.5 219.5t-219.5 91.5t-219.5 -91.5t-91.5 -219.5t92 -220t219 -92z" />
    <glyph glyph-name="uni0432" unicode="&#x432;" horiz-adv-x="1081" 
d="M803 518q71 -17 117.5 -77.5t46.5 -137.5q0 -303 -394 -303h-426v983h377q209 0 309.5 -73.5t100.5 -200.5q0 -67 -34.5 -117.5t-96.5 -73.5zM344 786v-196h236q157 0 157 98q0 31 -13 52t-38 30.5t-49 12.5t-57 3h-236zM608 197q71 0 116.5 25.5t45.5 80.5
q0 56 -45 81.5t-117 25.5h-264v-213h264z" />
    <glyph glyph-name="uni0433" unicode="&#x433;" horiz-adv-x="819" 
d="M344 786v-786h-197v983h590v-197h-393z" />
    <glyph glyph-name="uni0434" unicode="&#x434;" horiz-adv-x="1343" 
d="M1065 197h164v-459h-197v262h-753v-262h-197v459q65 19 113.5 53.5t80.5 88.5t52.5 115t31 149.5t14 174t3.5 205.5h688v-786zM403 197h465v589h-311q0 -207 -33 -356t-121 -233z" />
    <glyph glyph-name="uni0435" unicode="&#x435;" horiz-adv-x="1114" 
d="M1032 487q0 -45 -6 -86h-743q22 -111 108.5 -166t210.5 -55q159 0 299 99l66 -177q-16 -13 -41 -29t-71.5 -38t-114.5 -36.5t-142 -14.5q-125 0 -225 40.5t-162.5 110.5t-95.5 161t-33 196q0 141 58.5 255.5t171 183t259.5 68.5q200 0 330.5 -139t130.5 -373zM283 582
h548q-2 38 -18 75.5t-47 71t-84 54t-119 20.5q-64 0 -118.5 -21t-88 -54t-52.5 -71t-21 -75z" />
    <glyph glyph-name="uni0436" unicode="&#x436;" horiz-adv-x="1605" 
d="M1069 528l487 -528h-262l-356 406l-37 -37v-369h-196v369l-37 37l-357 -406h-262l488 528l-455 455h262l361 -385v385h196v-385l361 385h262z" />
    <glyph glyph-name="uni0437" unicode="&#x437;" horiz-adv-x="983" 
d="M418 180q112 -3 183 24.5t71 86.5t-90 89t-238 30v163q151 0 231 34t80 91q0 42 -55 75t-154 30q-87 -3 -145 -24t-121 -62l-90 155q82 62 181 94.5t196 32.5q174 0 279.5 -71t105.5 -215q0 -67 -36 -122.5t-105 -82.5q73 -29 115 -87t42 -130q0 -81 -33 -141.5
t-91.5 -96t-132 -52.5t-162.5 -17q-108 0 -204 32.5t-163 92.5l82 155q112 -79 254 -84z" />
    <glyph glyph-name="uni0438" unicode="&#x438;" horiz-adv-x="1179" 
d="M344 983v-594l688 627v-1016h-196v594l-689 -627v1016h197z" />
    <glyph glyph-name="uni0439" unicode="&#x439;" horiz-adv-x="1179" 
d="M737 1376h115q0 -109 -76.5 -185.5t-185.5 -76.5t-185.5 76.5t-76.5 185.5h114q0 -61 43 -104t105 -43t104.5 42.5t42.5 104.5zM344 983v-594l688 627v-1016h-196v594l-689 -627v1016h197z" />
    <glyph glyph-name="uni043A" unicode="&#x43a;" horiz-adv-x="1048" 
d="M508 508l524 -508h-262l-426 418v-418h-197v983h197v-401l393 401h262z" />
    <glyph glyph-name="uni043B" unicode="&#x43b;" horiz-adv-x="1212" 
d="M868 0v786h-360v-432q0 -192 -65 -281t-191 -89q-82 0 -137 16v164q196 -49 196 147v672h754v-983h-197z" />
    <glyph glyph-name="uni043C" unicode="&#x43c;" horiz-adv-x="1376" 
d="M1130 0l-106 541l-336 -541l-336 541l-106 -541h-197l219 1016l420 -699l420 699l219 -1016h-197z" />
    <glyph glyph-name="uni043D" unicode="&#x43d;" horiz-adv-x="1179" 
d="M836 983h196v-983h-196v393h-492v-393h-197v983h197v-393h492v393z" />
    <glyph glyph-name="uni043E" unicode="&#x43e;" horiz-adv-x="1179" 
d="M590 999q138 0 255 -67.5t185 -184.5t68 -255t-68 -255t-185 -185t-255 -68t-255 68t-185 185t-68 255t68 255t185 184.5t255 67.5zM590 180q127 0 219 92t92 220t-91.5 219.5t-219.5 91.5t-219.5 -91.5t-91.5 -219.5t92 -220t219 -92z" />
    <glyph glyph-name="uni043F" unicode="&#x43f;" horiz-adv-x="1179" 
d="M1032 983v-983h-196v786h-492v-786h-197v983h885z" />
    <glyph glyph-name="uni0440" unicode="&#x440;" 
d="M672 999q140 0 253.5 -68t175.5 -183.5t62 -255.5q0 -104 -36.5 -197.5t-101 -162t-156.5 -108.5t-197 -40q-206 0 -328 159v-667h-197v1507h197v-143q122 159 328 159zM655 180q129 0 220.5 91.5t91.5 220.5t-91.5 220t-220.5 91t-220 -91t-91 -220t91 -220.5t220 -91.5
z" />
    <glyph glyph-name="uni0441" unicode="&#x441;" horiz-adv-x="1015" 
d="M82 492q0 141 62 255.5t182.5 183t279.5 68.5q205 0 328 -112l-84 -182q-101 98 -242 98q-136 0 -232.5 -91t-96.5 -218q0 -129 96.5 -221.5t232.5 -92.5q141 0 242 101l84 -185q-57 -54 -146 -83t-182 -29q-160 0 -281 69t-182 183t-61 256z" />
    <glyph glyph-name="uni0442" unicode="&#x442;" horiz-adv-x="950" 
d="M82 983h786v-197h-295v-786h-196v786h-295v197z" />
    <glyph glyph-name="uni0443" unicode="&#x443;" horiz-adv-x="1048" 
d="M813 983h219l-665 -1507h-215l262 587l-398 920h220l288 -680z" />
    <glyph glyph-name="uni0444" unicode="&#x444;" horiz-adv-x="1671" 
d="M1143 999q192 0 319 -139.5t127 -351.5q0 -111 -34 -208t-93 -166.5t-141.5 -109.5t-177.5 -40q-119 0 -209 49v-492h-197v492q-90 -49 -209 -49q-95 0 -177.5 40t-141.5 109.5t-93 166.5t-34 208q0 212 127 351.5t319 139.5q119 0 209 -49v492h197v-492q90 49 209 49z
M547 180q36 0 66.5 7.5t60 25.5t46.5 54t17 87v299q0 67 -59.5 108.5t-130.5 41.5q-123 0 -195.5 -81.5t-72.5 -213.5q0 -145 72.5 -236.5t195.5 -91.5zM1124 180q123 0 196 91.5t73 236.5q0 132 -73 213.5t-196 81.5q-71 0 -130.5 -41.5t-59.5 -108.5v-299q0 -51 17 -87
t46.5 -54t60 -25.5t66.5 -7.5z" />
    <glyph glyph-name="uni0445" unicode="&#x445;" horiz-adv-x="1081" 
d="M657 522l375 -522h-233l-258 371l-258 -371h-234l375 522l-344 461h233l228 -324l227 324h233z" />
    <glyph glyph-name="uni0446" unicode="&#x446;" horiz-adv-x="1343" 
d="M1032 197h197v-459h-197v262h-885v983h197v-786h492v786h196v-786z" />
    <glyph glyph-name="uni0447" unicode="&#x447;" horiz-adv-x="1114" 
d="M508 328q-66 0 -121.5 11t-107 39t-87 71.5t-56.5 113t-21 158.5v262h196v-242q0 -118 53 -163.5t160 -53.5q51 -4 125.5 6.5t120.5 24.5v428h197v-983h-197v377q-116 -49 -262 -49z" />
    <glyph glyph-name="uni0448" unicode="&#x448;" horiz-adv-x="1605" 
d="M1262 983h196v-983h-1311v983h197v-786h361v786h196v-786h361v786z" />
    <glyph glyph-name="uni0449" unicode="&#x449;" horiz-adv-x="1769" 
d="M1458 197h197v-459h-197v262h-1311v983h197v-786h361v786h196v-786h361v786h196v-786z" />
    <glyph glyph-name="uni044A" unicode="&#x44a;" 
d="M737 655q206 0 316 -81.5t110 -237.5q0 -158 -111 -247t-315 -89h-393v786h-262v197h459v-328h196zM791 197q43 0 80 11t66.5 42t29.5 78q0 69 -53.5 100t-122.5 31h-250v-262h250z" />
    <glyph glyph-name="uni044B" unicode="&#x44b;" horiz-adv-x="1507" 
d="M147 0v983h197v-328h197q206 0 316 -81.5t110 -237.5q0 -158 -111 -247t-315 -89h-394zM1163 0v983h197v-983h-197zM594 197q43 0 80 11t66.5 42t29.5 78q0 69 -53.5 100t-122.5 31h-250v-262h250z" />
    <glyph glyph-name="uni044C" unicode="&#x44c;" horiz-adv-x="1048" 
d="M147 0v983h197v-328h197q206 0 316 -81.5t110 -237.5q0 -158 -111 -247t-315 -89h-394zM594 197q43 0 80 11t66.5 42t29.5 78q0 69 -53.5 100t-122.5 31h-250v-262h250z" />
    <glyph glyph-name="uni044D" unicode="&#x44d;" horiz-adv-x="1015" 
d="M408 180q117 0 206.5 70t114.5 176h-418v131h420q-25 106 -115 176t-208 70q-141 0 -242 -98l-84 182q123 112 328 112q159 0 279.5 -68.5t182.5 -183t62 -255.5q0 -142 -61 -256t-182 -183t-281 -69q-93 0 -182 29t-146 83l84 185q101 -101 242 -101z" />
    <glyph glyph-name="uni044E" unicode="&#x44e;" horiz-adv-x="1671" 
d="M1081 999q138 0 255 -67.5t185 -184.5t68 -255t-68 -255t-185 -185t-255 -68q-188 0 -330 121.5t-171 304.5h-236v-410h-197v983h197v-410h236q29 183 171 304.5t330 121.5zM1081 180q127 0 219.5 92t92.5 220q0 127 -92 219t-220 92q-127 0 -219 -91.5t-92 -219.5
t92 -220t219 -92z" />
    <glyph glyph-name="uni044F" unicode="&#x44f;" horiz-adv-x="1081" 
d="M573 983h361v-983h-197v313h-98l-301 -313h-256l317 313q-60 0 -124.5 38t-112 111.5t-47.5 160.5q0 179 118.5 269.5t339.5 90.5zM514 786q-90 0 -146.5 -37t-56.5 -108q0 -143 211 -143h215v288h-223z" />
    <glyph glyph-name="uni0451" unicode="&#x451;" horiz-adv-x="1114" 
d="M377 1114q-47 0 -81 34t-34 81q0 49 33.5 81.5t81.5 32.5q50 0 82.5 -32.5t32.5 -81.5q0 -48 -33 -81.5t-82 -33.5zM737 1114q-47 0 -80.5 34t-33.5 81q0 49 33 81.5t81 32.5q50 0 82.5 -32.5t32.5 -81.5q0 -48 -33 -81.5t-82 -33.5zM1032 487q0 -45 -6 -86h-743
q22 -111 108.5 -166t210.5 -55q159 0 299 99l66 -177q-16 -13 -41 -29t-71.5 -38t-114.5 -36.5t-142 -14.5q-125 0 -225 40.5t-162.5 110.5t-95.5 161t-33 196q0 141 58.5 255.5t171 183t259.5 68.5q200 0 330.5 -139t130.5 -373zM283 582h548q-2 38 -18 75.5t-47 71t-84 54
t-119 20.5q-64 0 -118.5 -21t-88 -54t-52.5 -71t-21 -75z" />
    <glyph glyph-name="uni0452" unicode="&#x452;" horiz-adv-x="1179" 
d="M684 999q187 0 284 -115.5t97 -334.5v-586q0 -92 -14.5 -167t-35 -124.5t-54.5 -87.5t-62.5 -59t-70 -36t-65 -20t-58.5 -10l-50 181q48 10 83.5 27.5t66.5 50t47 86.5t16 130v615q0 126 -50.5 190t-170.5 64q-46 0 -92.5 -18t-86.5 -50t-65.5 -83t-25.5 -111v-541h-197
v1147h-131v98h131v197h197v-197h131v-98h-131v-279q113 131 307 131z" />
    <glyph glyph-name="uni0453" unicode="&#x453;" horiz-adv-x="819" 
d="M262 1114l164 262h229l-262 -262h-131zM344 786v-786h-197v983h590v-197h-393z" />
    <glyph glyph-name="uni0454" unicode="&#x454;" horiz-adv-x="1015" 
d="M608 180q141 0 242 101l84 -185q-57 -54 -146 -83t-182 -29q-160 0 -281 69t-182 183t-61 256q0 141 62 255.5t182.5 183t279.5 68.5q205 0 328 -112l-84 -182q-101 98 -242 98q-118 0 -208 -70t-115 -176h420v-131h-418q25 -106 114.5 -176t206.5 -70z" />
    <glyph glyph-name="uni0455" unicode="&#x455;" horiz-adv-x="983" 
d="M543 606q104 -20 177 -52t111 -73.5t54 -83t16 -90.5q0 -149 -102 -236t-291 -87q-143 0 -260.5 47t-165.5 92l78 192q57 -57 156.5 -95t185.5 -40q92 -1 147.5 29t55.5 76q0 52 -46.5 79t-146.5 46q-158 28 -246 71.5t-119.5 98.5t-31.5 139q0 124 109.5 202t289.5 78
q182 0 356 -94l-67 -184q-39 28 -122 54.5t-167 27.5q-52 1 -95.5 -6t-75.5 -27.5t-32 -52.5q0 -12 3.5 -22.5t13 -19t18 -15t25 -12.5t28 -10.5t34 -9.5t34.5 -7.5t38 -7.5t38 -7z" />
    <glyph glyph-name="uni0456" unicode="&#x456;" horiz-adv-x="491" 
d="M246 1147q-62 0 -105 43t-43 104q0 62 43 105t105 43q61 0 104 -43t43 -105t-42.5 -104.5t-104.5 -42.5zM147 0v983h197v-983h-197z" />
    <glyph glyph-name="uni0457" unicode="&#x457;" horiz-adv-x="491" 
d="M66 1114q-47 0 -81 34t-34 81q0 49 33.5 81.5t81.5 32.5q50 0 82 -32.5t32 -81.5q0 -48 -32.5 -81.5t-81.5 -33.5zM426 1114q-47 0 -81 34t-34 81q0 49 33.5 81.5t81.5 32.5q50 0 82.5 -32.5t32.5 -81.5q0 -48 -33 -81.5t-82 -33.5zM147 0v983h197v-983h-197z" />
    <glyph glyph-name="uni0458" unicode="&#x458;" horiz-adv-x="491" 
d="M246 1147q-62 0 -105 43t-43 104q0 62 43 105t105 43q61 0 104 -43t43 -105t-42.5 -104.5t-104.5 -42.5zM147 -66v1049h197v-1020q0 -92 -14.5 -167t-35 -124.5t-54.5 -87.5t-62.5 -59t-70 -36t-65 -20t-58.5 -10l-50 181q48 10 83.5 27.5t66.5 50t47 86.5t16 130z" />
    <glyph glyph-name="uni0459" unicode="&#x459;" horiz-adv-x="1736" 
d="M1229 623q426 0 426 -304q0 -156 -110 -237.5t-316 -81.5h-361v786h-360v-432q0 -192 -65 -281t-191 -89q-82 0 -137 16v164q196 -49 196 147v672h754v-360h164zM1274 197q184 0 184 114q0 115 -184 115h-209v-229h209z" />
    <glyph glyph-name="uni045A" unicode="&#x45a;" horiz-adv-x="1703" 
d="M1196 623q426 0 426 -304q0 -156 -110 -237.5t-316 -81.5h-360v426h-492v-426h-197v983h197v-360h492v360h196v-360h164zM1241 197q184 0 184 114q0 115 -184 115h-209v-229h209z" />
    <glyph glyph-name="uni045B" unicode="&#x45b;" horiz-adv-x="1179" 
d="M684 999q187 0 284 -115.5t97 -334.5v-549h-197v549q0 126 -50.5 190t-170.5 64q-46 0 -92.5 -18t-86.5 -50t-65.5 -83t-25.5 -111v-541h-197v1147h-131v98h131v197h197v-197h131v-98h-131v-279q113 131 307 131z" />
    <glyph glyph-name="uni045C" unicode="&#x45c;" horiz-adv-x="1048" 
d="M360 1114l164 262h230l-262 -262h-132zM508 508l524 -508h-262l-426 418v-418h-197v983h197v-401l393 401h262z" />
    <glyph glyph-name="uni045E" unicode="&#x45e;" horiz-adv-x="1048" 
d="M672 1376h114q0 -109 -76.5 -185.5t-185.5 -76.5t-185.5 76.5t-76.5 185.5h115q0 -62 42.5 -104.5t104.5 -42.5t105 43t43 104zM813 983h219l-665 -1507h-215l262 587l-398 920h220l288 -680z" />
    <glyph glyph-name="uni045F" unicode="&#x45f;" horiz-adv-x="1179" 
d="M836 983h196v-983h-344v-262h-196v262h-345v983h197v-786h492v786z" />
    <glyph glyph-name="uni0462" unicode="&#x462;" 
d="M651 868q252 0 382 -116t130 -316q0 -202 -132 -319t-392 -117h-426v1065h-164v164h164v213h197v-213h327v-164h-327v-197h241zM674 197q132 0 212.5 56.5t80.5 182.5q0 236 -299 236h-258v-475h264z" />
    <glyph glyph-name="uni0463" unicode="&#x463;" horiz-adv-x="1081" 
d="M573 655q206 0 316 -81.5t110 -237.5q0 -158 -111 -247t-315 -89h-393v819h-131v99h131v131h197v-131h131v-99h-131v-164h196zM627 197q43 0 80 11t66.5 42t29.5 78q0 69 -53.5 100t-122.5 31h-250v-262h250z" />
    <glyph glyph-name="uni0472" unicode="&#x472;" horiz-adv-x="1572" 
d="M786 1393q191 0 353.5 -94.5t257 -257t94.5 -353.5q0 -143 -56 -273.5t-150.5 -225t-225 -150t-273.5 -55.5t-273.5 55.5t-225 150t-150 225t-55.5 273.5t55.5 273.5t150 225t225 150.5t273.5 56zM786 1196q-198 0 -341.5 -131t-163.5 -326q102 47 268 47q118 0 244 -36
q142 -44 284.5 -39t208.5 67q-31 181 -171.5 299.5t-328.5 118.5zM786 180q197 0 341.5 130.5t164.5 324.5q-100 -45 -262 -45q-122 0 -258 39q-140 43 -279 37.5t-206 -66.5q31 -181 171 -300.5t328 -119.5z" />
    <glyph glyph-name="uni0473" unicode="&#x473;" horiz-adv-x="1179" 
d="M590 999q138 0 255 -67.5t185 -184.5t68 -255t-68 -255t-185 -185t-255 -68t-255 68t-185 185t-68 255t68 255t185 184.5t255 67.5zM590 803q-106 0 -189.5 -65.5t-111.5 -166.5q58 19 127 19t178 -37q99 -39 175.5 -36t119.5 61q-30 98 -113 161.5t-186 63.5zM590 180
q106 0 189.5 65.5t111.5 166.5q-56 -19 -121 -19q-71 0 -190 39q-72 24 -122 32t-94.5 -5t-72.5 -53q30 -98 113 -162t186 -64z" />
    <glyph glyph-name="uni0474" unicode="&#x474;" horiz-adv-x="1376" 
d="M1135 1372q87 37 192 4v-196q-79 14 -122.5 -7.5t-82.5 -109.5l-483 -1096l-623 1409h213l410 -946l268 621q64 146 114.5 220.5t113.5 100.5z" />
    <glyph glyph-name="uni0475" unicode="&#x475;" horiz-adv-x="1081" 
d="M924 999q42 0 108 -16v-164q-75 19 -124.5 -24t-96.5 -144l-319 -684l-476 1016h213l263 -573l67 143q13 28 36 79t37 80.5t36.5 73.5t40 70t43 56.5t50.5 47t56.5 28t65.5 11.5z" />
    <glyph glyph-name="uni0490" unicode="&#x490;" horiz-adv-x="1015" 
d="M770 1573h164v-393h-590v-1180h-197v1376h623v197z" />
    <glyph glyph-name="uni0491" unicode="&#x491;" horiz-adv-x="819" 
d="M573 1180h164v-394h-393v-786h-197v983h426v197z" />
    <glyph glyph-name="uni0492" unicode="&#x492;" horiz-adv-x="1048" 
d="M967 1180h-590v-492h196v-98h-196v-590h-197v590h-131v98h131v688h787v-196z" />
    <glyph glyph-name="uni0493" unicode="&#x493;" horiz-adv-x="851" 
d="M770 786h-393v-294h196v-99h-196v-393h-197v393h-131v99h131v491h590v-197z" />
    <glyph glyph-name="uni0496" unicode="&#x496;" horiz-adv-x="1933" 
d="M1712 197h172v-394h-164v197h-98l-506 582l-51 -58v-524h-197v524l-51 58l-506 -582h-262l633 723l-600 653h262l524 -590v590h197v-590l524 590h262l-600 -653z" />
    <glyph glyph-name="uni0497" unicode="&#x497;" horiz-adv-x="1605" 
d="M1374 197h182v-394h-163v197h-99l-356 406l-37 -37v-369h-196v369l-37 37l-357 -406h-262l488 528l-455 455h262l361 -385v385h196v-385l361 385h262l-455 -455z" />
    <glyph glyph-name="uni049A" unicode="&#x49a;" horiz-adv-x="1212" 
d="M985 197h178v-394h-164v197h-98l-557 606v-606h-197v1376h197v-606l524 606h262l-606 -674z" />
    <glyph glyph-name="uni049B" unicode="&#x49b;" horiz-adv-x="1081" 
d="M829 197h203v-394h-164v197h-98l-426 418v-418h-197v983h197v-401l393 401h262l-491 -475z" />
    <glyph glyph-name="uni04A2" unicode="&#x4a2;" horiz-adv-x="1409" 
d="M1196 197h164v-394h-164v197h-197v590h-655v-590h-197v1376h197v-590h655v590h197v-1179z" />
    <glyph glyph-name="uni04A3" unicode="&#x4a3;" 
d="M1032 197h164v-394h-164v197h-196v393h-492v-393h-197v983h197v-393h492v393h196v-786z" />
    <glyph glyph-name="uni04AE" unicode="&#x4ae;" horiz-adv-x="1212" 
d="M975 1376h221l-491 -819v-557h-197v557l-492 819h222l368 -631z" />
    <glyph glyph-name="uni04AF" unicode="&#x4af;" horiz-adv-x="1015" 
d="M999 983l-393 -805v-702h-196v702l-394 805h213l279 -573l278 573h213z" />
    <glyph glyph-name="uni04B0" unicode="&#x4b0;" horiz-adv-x="1212" 
d="M705 557v-65h131v-99h-131v-393h-197v393h-131v99h131v65l-492 819h222l368 -631l369 631h221z" />
    <glyph glyph-name="uni04B1" unicode="&#x4b1;" horiz-adv-x="1015" 
d="M606 178v-244h164v-98h-164v-360h-196v360h-164v98h164v244l-394 805h213l279 -573l278 573h213z" />
    <glyph glyph-name="uni04B2" unicode="&#x4b2;" horiz-adv-x="1376" 
d="M1155 197h172v-394h-164v197h-106l-385 555l-385 -555h-238l500 711l-467 665h235l355 -512l354 512h236l-467 -665z" />
    <glyph glyph-name="uni04B3" unicode="&#x4b3;" horiz-adv-x="1114" 
d="M891 197h174v-394h-164v197h-102l-258 371l-258 -371h-234l375 522l-344 461h233l228 -324l227 324h233l-344 -461z" />
    <glyph glyph-name="uni04B6" unicode="&#x4b6;" horiz-adv-x="1310" 
d="M1098 197h164v-394h-164v197h-197v549q-166 -74 -328 -74q-68 0 -130 13t-123 46.5t-105.5 84t-72 131.5t-27.5 184v442h196v-426q0 -149 79.5 -213.5t232.5 -64.5q71 0 140.5 16t103.5 32l34 17v639h197v-1179z" />
    <glyph glyph-name="uni04B7" unicode="&#x4b7;" horiz-adv-x="1179" 
d="M967 197h163v-394h-163v197h-197v393q-116 -49 -262 -49q-66 0 -121.5 11t-107 39t-87 71.5t-56.5 113t-21 158.5v246h196v-225q0 -118 53 -163.5t160 -53.5q51 -4 126 6t120 24v412h197v-786z" />
    <glyph glyph-name="uni04BA" unicode="&#x4ba;" 
d="M672 901q68 0 130 -13t123 -46.5t105.5 -84t72 -131.5t27.5 -184v-442h-196v426q0 149 -79.5 214t-231.5 65q-71 0 -141 -16.5t-104 -32.5l-34 -17v-639h-197v1376h197v-549q166 74 328 74z" />
    <glyph glyph-name="uni04BB" unicode="&#x4bb;" horiz-adv-x="1146" 
d="M651 999q187 0 284 -115.5t97 -334.5v-549h-196v549q0 125 -50.5 189.5t-171.5 64.5q-46 0 -92.5 -18t-86.5 -50t-65.5 -83t-25.5 -111v-541h-197v1442h197v-574q113 131 307 131z" />
    <glyph glyph-name="uni04C0" unicode="&#x4c0;" horiz-adv-x="491" 
d="M344 0h-197v1376h197v-1376z" />
    <glyph glyph-name="uni04CF" unicode="&#x4cf;" horiz-adv-x="491" 
d="M147 0v983h197v-983h-197z" />
    <glyph glyph-name="uni04D8" unicode="&#x4d8;" horiz-adv-x="1572" 
d="M82 688q0 28 4 82h1202q-29 184 -170.5 305t-331.5 121q-149 0 -270.5 -76.5t-183.5 -204.5l-193 54q83 190 258 307t389 117q191 0 353.5 -94.5t257 -257t94.5 -353.5q0 -143 -56 -273.5t-150.5 -225t-225 -150t-273.5 -55.5t-273.5 55.5t-225 150t-150 225t-55.5 273.5
zM285 606q29 -184 170.5 -305t330.5 -121q190 0 331.5 121t170.5 305h-1003z" />
    <glyph glyph-name="uni04D9" unicode="&#x4d9;" horiz-adv-x="1114" 
d="M82 496q0 46 6 86h743q-29 107 -103 164t-177 57q-155 0 -232 -98l-180 57q9 20 26 45t52.5 60.5t79.5 63.5t111.5 48t142.5 20q143 0 254 -69.5t169 -184t58 -253.5q0 -216 -134.5 -362t-354.5 -146q-200 0 -330.5 139t-130.5 373zM831 401h-548q2 -38 18 -75.5t47 -71
t84 -54t119 -20.5q64 0 118.5 21t88 54t52.5 71t21 75z" />
    <glyph glyph-name="uni04E2" unicode="&#x4e2;" horiz-adv-x="1441" 
d="M999 1540h-557v115h557v-115zM147 -33v1409h197v-942l950 975v-1409h-196v942z" />
    <glyph glyph-name="uni04E3" unicode="&#x4e3;" horiz-adv-x="1179" 
d="M868 1147h-557v115h557v-115zM344 983v-594l688 627v-1016h-196v594l-689 -627v1016h197z" />
    <glyph glyph-name="uni04E8" unicode="&#x4e8;" horiz-adv-x="1572" 
d="M786 1393q191 0 353.5 -94.5t257 -257t94.5 -353.5q0 -143 -56 -273.5t-150.5 -225t-225 -150t-273.5 -55.5t-273.5 55.5t-225 150t-150 225t-55.5 273.5t55.5 273.5t150 225t225 150.5t273.5 56zM786 1196q-199 0 -342.5 -131.5t-162.5 -327.5h1011q-19 196 -163 327.5
t-343 131.5zM786 180q199 0 343 131.5t163 327.5h-1011q19 -196 162.5 -327.5t342.5 -131.5z" />
    <glyph glyph-name="uni04E9" unicode="&#x4e9;" horiz-adv-x="1179" 
d="M590 999q138 0 255 -67.5t185 -184.5t68 -255t-68 -255t-185 -185t-255 -68t-255 68t-185 185t-68 255t68 255t185 184.5t255 67.5zM590 803q-109 0 -195.5 -70.5t-109.5 -175.5h610q-23 105 -109.5 175.5t-195.5 70.5zM590 180q109 0 195.5 70.5t109.5 175.5h-610
q23 -105 109.5 -175.5t195.5 -70.5z" />
    <glyph glyph-name="uni04EE" unicode="&#x4ee;" 
d="M918 1540h-558v115h558v-115zM1008 1376h221l-778 -1376h-222l308 528l-488 848h221l369 -674z" />
    <glyph glyph-name="uni04EF" unicode="&#x4ef;" horiz-adv-x="1048" 
d="M803 1147h-557v115h557v-115zM813 983h219l-665 -1507h-215l262 587l-398 920h220l288 -680z" />
    <glyph glyph-name="Wgrave" unicode="&#x1e80;" horiz-adv-x="1966" 
d="M1114 1507h-131l-262 262h229zM1720 1376h213l-573 -1409l-377 951l-377 -951l-573 1409h213l360 -905l377 938l377 -938z" />
    <glyph glyph-name="wgrave" unicode="&#x1e81;" horiz-adv-x="1540" 
d="M885 1114h-131l-262 262h229zM1294 983h213l-426 -1016l-311 631l-311 -631l-426 1016h213l229 -586l295 619l295 -619z" />
    <glyph glyph-name="Wacute" unicode="&#x1e82;" horiz-adv-x="1966" 
d="M852 1507l164 262h229l-262 -262h-131zM1720 1376h213l-573 -1409l-377 951l-377 -951l-573 1409h213l360 -905l377 938l377 -938z" />
    <glyph glyph-name="wacute" unicode="&#x1e83;" horiz-adv-x="1540" 
d="M655 1114l164 262h230l-263 -262h-131zM1294 983h213l-426 -1016l-311 631l-311 -631l-426 1016h213l229 -586l295 619l295 -619z" />
    <glyph glyph-name="Wdieresis" unicode="&#x1e84;" horiz-adv-x="1966" 
d="M803 1507q-47 0 -81 34t-34 81q0 49 33.5 82t81.5 33q49 0 82 -32.5t33 -82.5q0 -48 -33 -81.5t-82 -33.5zM1163 1507q-47 0 -80.5 34t-33.5 81q0 49 33 82t81 33q49 0 82 -32.5t33 -82.5q0 -48 -33 -81.5t-82 -33.5zM1720 1376h213l-573 -1409l-377 951l-377 -951
l-573 1409h213l360 -905l377 938l377 -938z" />
    <glyph glyph-name="wdieresis" unicode="&#x1e85;" horiz-adv-x="1540" 
d="M590 1114q-47 0 -81 34t-34 81q0 49 33.5 81.5t81.5 32.5q50 0 82.5 -32.5t32.5 -81.5q0 -48 -33 -81.5t-82 -33.5zM950 1114q-47 0 -80.5 34t-33.5 81q0 49 33 81.5t81 32.5q50 0 82.5 -32.5t32.5 -81.5q0 -48 -33 -81.5t-82 -33.5zM1294 983h213l-426 -1016l-311 631
l-311 -631l-426 1016h213l229 -586l295 619l295 -619z" />
    <glyph glyph-name="Ygrave" unicode="&#x1ef2;" horiz-adv-x="1212" 
d="M705 1507h-132l-262 262h230zM975 1376h221l-491 -819v-557h-197v557l-492 819h222l368 -631z" />
    <glyph glyph-name="ygrave" unicode="&#x1ef3;" horiz-adv-x="1048" 
d="M647 1114h-131l-262 262h229zM813 983h219l-665 -1507h-215l262 587l-398 920h220l288 -680z" />
    <glyph glyph-name="endash" unicode="&#x2013;" horiz-adv-x="1048" 
d="M934 459h-819v164h819v-164z" />
    <glyph glyph-name="emdash" unicode="&#x2014;" 
d="M1130 459h-1015v164h1015v-164z" />
    <glyph glyph-name="quoteleft" unicode="&#x2018;" horiz-adv-x="524" 
d="M442 1376l-98 -393h-262l229 393h131z" />
    <glyph glyph-name="quoteright" unicode="&#x2019;" horiz-adv-x="524" 
d="M82 983l98 393h262l-229 -393h-131z" />
    <glyph glyph-name="quotesinglbase" unicode="&#x201a;" horiz-adv-x="524" 
d="M82 -131l98 393h262l-229 -393h-131z" />
    <glyph glyph-name="quotedblleft" unicode="&#x201c;" horiz-adv-x="1015" 
d="M442 1376l-98 -393h-262l229 393h131zM934 1376l-98 -393h-263l230 393h131z" />
    <glyph glyph-name="quotedblright" unicode="&#x201d;" horiz-adv-x="1015" 
d="M82 983l98 393h262l-229 -393h-131zM573 983l99 393h262l-229 -393h-132z" />
    <glyph glyph-name="quotedblbase" unicode="&#x201e;" horiz-adv-x="1015" 
d="M82 -131l98 393h262l-229 -393h-131zM573 -131l99 393h262l-229 -393h-132z" />
    <glyph glyph-name="dagger" unicode="&#x2020;" horiz-adv-x="1343" 
d="M1229 819h-459l-98 -1376l-99 1376h-458v164h458v590h197v-590h459v-164z" />
    <glyph glyph-name="daggerdbl" unicode="&#x2021;" horiz-adv-x="1343" 
d="M1229 819h-459v-295h459v-164h-475l-82 -917l-82 917h-475v164h458v295h-458v164h458v590h197v-590h459v-164z" />
    <glyph glyph-name="bullet" unicode="&#x2022;" horiz-adv-x="1605" 
d="M803 918q97 0 163 -66.5t66 -163.5t-66 -163t-163 -66t-163.5 66t-66.5 163t66.5 163.5t163.5 66.5z" />
    <glyph glyph-name="ellipsis" unicode="&#x2026;" horiz-adv-x="1638" 
d="M262 -16q-62 0 -104.5 43t-42.5 104q0 63 42.5 105.5t104.5 42.5q63 0 105.5 -42.5t42.5 -105.5q0 -62 -42.5 -104.5t-105.5 -42.5zM819 -16q-61 0 -104 43t-43 104q0 63 42.5 105.5t104.5 42.5q63 0 105.5 -42.5t42.5 -105.5q0 -62 -42.5 -104.5t-105.5 -42.5zM1376 -16
q-62 0 -104.5 43t-42.5 104q0 63 42.5 105.5t104.5 42.5q63 0 105.5 -42.5t42.5 -105.5q0 -62 -42.5 -104.5t-105.5 -42.5z" />
    <glyph glyph-name="perthousand" unicode="&#x2030;" horiz-adv-x="2359" 
d="M412 803q-125 0 -211 85.5t-86 209.5q0 123 86.5 209t210.5 86q123 0 208 -86t85 -209q0 -124 -85 -209.5t-208 -85.5zM389 0h-131l959 1376h131zM410 934q66 0 114.5 49t48.5 115t-48.5 115t-114.5 49t-115 -49t-49 -115t49 -115t115 -49zM1198 -16q-125 0 -211 85.5
t-86 209.5q0 123 86.5 208.5t210.5 85.5q123 0 208 -85.5t85 -208.5q0 -124 -85 -209.5t-208 -85.5zM1952 -16q-125 0 -211 85.5t-86 209.5q0 123 86.5 208.5t210.5 85.5q123 0 208 -85.5t85 -208.5q0 -124 -85 -209.5t-208 -85.5zM1196 115q66 0 115 49t49 115t-49 114.5
t-115 48.5t-115 -48.5t-49 -114.5t49 -115t115 -49zM1950 115q66 0 115 49t49 115t-49 114.5t-115 48.5t-115 -48.5t-49 -114.5t49 -115t115 -49z" />
    <glyph glyph-name="guilsinglleft" unicode="&#x2039;" horiz-adv-x="802" 
d="M623 983l-328 -442l328 -443h-181l-327 443l327 442h181z" />
    <glyph glyph-name="guilsinglright" unicode="&#x203a;" horiz-adv-x="802" 
d="M180 983h180l328 -442l-328 -443h-180l328 443z" />
    <glyph glyph-name="fraction" unicode="&#x2044;" horiz-adv-x="466" 
d="M-180 0h-131l958 1376h131z" />
    <glyph glyph-name="uni2070" unicode="&#x2070;" horiz-adv-x="737" 
d="M369 1548q112 0 183 -101.5t71 -250.5t-71 -250.5t-183 -101.5t-183 101.5t-71 250.5t71 250.5t183 101.5zM369 942q64 0 109.5 74.5t45.5 179.5q0 106 -45 180t-110 74t-110.5 -74t-45.5 -180q0 -104 46 -179t110 -75z" />
    <glyph glyph-name="uni2074" unicode="&#x2074;" horiz-adv-x="704" 
d="M508 1065h82v-98h-82v-115h-98v115h-361l459 589v-491zM410 1065v227l-166 -227h166z" />
    <glyph glyph-name="uni2075" unicode="&#x2075;" horiz-adv-x="720" 
d="M383 1311q89 0 156 -61.5t67 -164.5q0 -105 -72.5 -173t-173.5 -68q-100 0 -169.5 62t-75.5 151l102 10q5 -50 45 -87.5t98 -37.5q61 0 104.5 40.5t43.5 98.5q0 59 -36 95t-95 36q-42 0 -83 -21.5t-63 -60.5h-100l62 410h348v-98h-265l-26 -176q54 45 133 45z" />
    <glyph glyph-name="uni2076" unicode="&#x2076;" horiz-adv-x="737" 
d="M389 1333q103 0 168.5 -67.5t65.5 -161.5q0 -115 -71.5 -187.5t-182.5 -72.5q-112 0 -183 73t-71 193q0 115 60.5 234.5t180.5 195.5h174q-8 -2 -21 -7.5t-49.5 -25.5t-69 -44t-69.5 -66.5t-61 -91.5q51 28 129 28zM369 942q68 0 111.5 43.5t43.5 106.5t-42 103t-113 40
q-67 0 -111.5 -40.5t-44.5 -102.5t44.5 -106t111.5 -44z" />
    <glyph glyph-name="uni2077" unicode="&#x2077;" horiz-adv-x="688" 
d="M147 1540h492l-295 -688h-115l254 590h-336v98z" />
    <glyph glyph-name="uni2078" unicode="&#x2078;" horiz-adv-x="737" 
d="M530 1231q44 -26 68.5 -69.5t24.5 -96.5q0 -98 -73.5 -159.5t-180.5 -61.5t-180.5 61.5t-73.5 159.5q0 108 92 166q-60 42 -60 125q0 82 64.5 137t157.5 55t157 -54.5t64 -137.5t-60 -125zM369 1450q-51 0 -87 -26.5t-36 -63.5q0 -36 36.5 -63t86.5 -27q52 0 87.5 27
t35.5 63q0 37 -35.5 63.5t-87.5 26.5zM369 942q65 0 110 34t45 85t-45 85t-110 34t-110.5 -34t-45.5 -85t45.5 -85t110.5 -34z" />
    <glyph glyph-name="uni2079" unicode="&#x2079;" horiz-adv-x="737" 
d="M350 1059q-103 0 -169 68t-66 163q0 115 71.5 186.5t182.5 71.5q114 0 184 -72t70 -194q0 -114 -60.5 -233t-179.5 -197h-174q8 3 21 8t49.5 25t69 45t69.5 68t61 92q-57 -31 -129 -31zM369 1450q-67 0 -111.5 -42.5t-44.5 -104.5q0 -63 42.5 -104.5t113.5 -41.5
q68 0 111.5 42t43.5 104t-43.5 104.5t-111.5 42.5z" />
    <glyph glyph-name="Euro" unicode="&#x20ac;" horiz-adv-x="1441" 
d="M918 180q114 0 199.5 37t158.5 113l84 -185q-84 -77 -199 -119t-231 -42q-251 0 -446 153t-251 387h-151v99h133q0 11 -1 32t-1 33t1 33t1 33h-133v98h151q56 234 251 387.5t446 153.5q116 0 231 -41.5t199 -118.5l-84 -184q-73 74 -158.5 110.5t-199.5 36.5
q-166 0 -298 -96t-184 -248h465l-31 -98h-456q-4 -40 -4 -66q0 -25 4 -65h424l-29 -99h-373q52 -152 184 -248t298 -96z" />
    <glyph glyph-name="trademark" unicode="&#x2122;" horiz-adv-x="1343" 
d="M883 748l-191 376l-59 -362h-88l104 624l238 -460l237 460l105 -624h-88l-60 362zM115 1376h409v-88h-162v-526h-86v526h-161v88z" />
    <glyph glyph-name="oneeighth" unicode="&#x215b;" horiz-adv-x="1875" 
d="M213 1319l213 74v-705h-98v578l-115 -37v90zM492 0h-132l959 1376h131zM1669 379q92 -55 92 -166q0 -98 -73.5 -159.5t-180.5 -61.5t-180.5 61.5t-73.5 159.5q0 108 93 166q-60 42 -60 125t64 137.5t157 54.5t157.5 -55t64.5 -137q0 -83 -60 -125zM1507 598
q-51 0 -87 -26.5t-36 -63.5q0 -36 36.5 -63t86.5 -27q52 0 87.5 27t35.5 63q0 37 -35.5 63.5t-87.5 26.5zM1507 90q65 0 110.5 34t45.5 85t-45.5 85t-110.5 34t-110 -34t-45 -85t45 -85t110 -34z" />
    <glyph glyph-name="threeeighths" unicode="&#x215c;" horiz-adv-x="1925" 
d="M508 1053q40 -14 69 -57t29 -95q0 -88 -61 -154.5t-185 -66.5q-108 0 -172.5 60.5t-72.5 160.5l98 17q18 -140 154 -140q65 0 103 33.5t38 81.5q0 58 -45.5 78t-134.5 20v99q164 6 164 98q0 38 -32.5 68t-92.5 30q-126 0 -138 -131l-98 16q8 93 71.5 153t157.5 60
q57 0 103 -18t72.5 -47t40.5 -60.5t14 -62.5q0 -96 -82 -143zM541 0h-131l958 1376h131zM1718 379q92 -55 92 -166q0 -98 -73.5 -159.5t-180.5 -61.5t-180 61.5t-73 159.5q0 108 92 166q-60 42 -60 125t64 137.5t157 54.5t157.5 -55t64.5 -137q0 -83 -60 -125zM1556 598
q-51 0 -86.5 -26.5t-35.5 -63.5q0 -36 36 -63t86 -27q52 0 87.5 27t35.5 63q0 37 -35.5 63.5t-87.5 26.5zM1556 90q65 0 110.5 34t45.5 85t-45.5 85t-110.5 34t-110 -34t-45 -85t45 -85t110 -34z" />
    <glyph glyph-name="fiveeighths" unicode="&#x215d;" horiz-adv-x="1925" 
d="M383 1147q89 0 156 -61t67 -164q0 -105 -72.5 -173.5t-173.5 -68.5q-100 0 -169.5 62t-75.5 151l102 10q5 -50 45 -87.5t98 -37.5q60 0 104 41t44 99t-36 94.5t-95 36.5q-42 0 -83 -21.5t-63 -60.5h-100l62 409h348v-98h-265l-26 -176q54 45 133 45zM541 0h-131l958 1376
h131zM1718 379q92 -55 92 -166q0 -98 -73.5 -159.5t-180.5 -61.5t-180 61.5t-73 159.5q0 108 92 166q-60 42 -60 125t64 137.5t157 54.5t157.5 -55t64.5 -137q0 -83 -60 -125zM1556 598q-51 0 -86.5 -26.5t-35.5 -63.5q0 -36 36 -63t86 -27q52 0 87.5 27t35.5 63
q0 37 -35.5 63.5t-87.5 26.5zM1556 90q65 0 110.5 34t45.5 85t-45.5 85t-110.5 34t-110 -34t-45 -85t45 -85t110 -34z" />
    <glyph glyph-name="seveneighths" unicode="&#x215e;" horiz-adv-x="1892" 
d="M147 1376h492l-295 -688h-115l254 590h-336v98zM508 0h-131l958 1376h131zM1686 379q92 -55 92 -166q0 -98 -73.5 -159.5t-180.5 -61.5t-180.5 61.5t-73.5 159.5q0 108 92 166q-59 42 -59 125t64 137.5t157 54.5t157 -54.5t64 -137.5t-59 -125zM1524 598q-51 0 -87 -26.5
t-36 -63.5q0 -36 36.5 -63t86.5 -27q52 0 87.5 27t35.5 63q0 37 -35.5 63.5t-87.5 26.5zM1524 90q65 0 110 34t45 85t-45 85t-110 34t-110.5 -34t-45.5 -85t45.5 -85t110.5 -34z" />
    <glyph glyph-name="partialdiff" unicode="&#x2202;" 
d="M1130 492q0 -138 -67.5 -255t-184.5 -185t-255 -68t-255 68t-185 185t-68 255t68 255t185 184.5t255 67.5q132 0 249 -65q-38 126 -105.5 226t-152 163t-173.5 100t-185 52l86 163q252 -58 432 -226t268 -403.5t88 -516.5zM623 180q127 0 219 92t92 220t-92 219.5
t-219 91.5q-128 0 -220 -92t-92 -219q0 -128 92.5 -220t219.5 -92z" />
    <glyph glyph-name="emptyset" unicode="&#x2205;" horiz-adv-x="1327" 
 />
    <glyph glyph-name="product" unicode="&#x220f;" 
d="M1098 1442v-1966h-197v1769h-557v-1769h-197v1966h951z" />
    <glyph glyph-name="summation" unicode="&#x2211;" horiz-adv-x="1376" 
d="M381 1311l618 -819l-618 -820h848v-196h-1082v196l607 820l-607 819v196h1082v-196h-848z" />
    <glyph glyph-name="minus" unicode="&#x2212;" horiz-adv-x="983" 
d="M115 688h753v-131h-753v131z" />
    <glyph glyph-name="radical" unicode="&#x221a;" horiz-adv-x="1900" 
d="M1819 1376v-196h-697l-565 -1213l-475 1016h213l262 -573l444 966h818z" />
    <glyph glyph-name="infinity" unicode="&#x221e;" horiz-adv-x="1277" 
d="M870 885q123 0 208 -86t85 -209q0 -124 -85 -209.5t-208 -85.5q-143 0 -231 106q-40 -50 -99.5 -78t-127.5 -28q-125 0 -211 85.5t-86 209.5q0 123 86.5 209t210.5 86q68 0 127 -29t100 -80q91 109 231 109zM410 426q66 0 114.5 49t48.5 115t-48.5 115t-114.5 49
t-115 -49t-49 -115t49 -115t115 -49zM868 426q66 0 115 49t49 115t-49 115t-115 49t-114.5 -49t-48.5 -115t48.5 -115t114.5 -49z" />
    <glyph glyph-name="integral" unicode="&#x222b;" horiz-adv-x="688" 
d="M246 926q0 118 13.5 198.5t49 144t100.5 94t164 30.5v-197q-59 0 -95 -44.5t-36 -117.5v-1108q0 -118 -13.5 -198.5t-49 -144t-100.5 -94t-164 -30.5v197q59 0 95 44.5t36 117.5v1108z" />
    <glyph glyph-name="approxequal" unicode="&#x2248;" horiz-adv-x="1015" 
d="M778 918l123 -50q-47 -93 -107.5 -128t-136.5 -35q-22 0 -49.5 6.5t-41 11t-50.5 20.5t-41 17q-43 16 -73.5 22.5t-62 4t-56.5 -22.5t-45 -59l-123 49q47 93 108 128.5t135 35.5q21 0 49 -7t42 -12t51.5 -21.5t40.5 -17.5q42 -16 73 -22.5t62.5 -3t56.5 24t45 59.5z
M778 573l123 -49q-47 -93 -107.5 -128.5t-136.5 -35.5q-22 0 -49 6.5t-42.5 12t-49 20t-41.5 17.5q-42 16 -73 22.5t-62.5 3.5t-56.5 -23t-45 -59l-123 50q47 93 107.5 128t135.5 35q17 0 35.5 -3t40.5 -11t35 -12.5t39 -16t33 -14.5q42 -16 73 -22.5t62.5 -3.5t56.5 23.5
t45 59.5z" />
    <glyph glyph-name="notequal" unicode="&#x2260;" horiz-adv-x="1048" 
d="M934 705h-334l-37 -164h371v-131h-404l-96 -410h-115l97 410h-301v131h334l36 164h-370v131h403l96 409h115l-96 -409h301v-131z" />
    <glyph glyph-name="lessequal" unicode="&#x2264;" horiz-adv-x="1081" 
d="M967 262l-852 393v131l852 394v-164l-656 -295l656 -295v-164zM967 131v-131h-852v131h852z" />
    <glyph glyph-name="greaterequal" unicode="&#x2265;" horiz-adv-x="1081" 
d="M115 262v164l655 295l-655 295v164l852 -394v-131zM115 131h852v-131h-852v131z" />
    <glyph glyph-name="lozenge" unicode="&#x25ca;" horiz-adv-x="1343" 
d="M1229 688l-557 -721l-557 721l557 721zM1032 688l-360 455l-357 -455l357 -455z" />
    <glyph glyph-name="M.ss01" horiz-adv-x="1605" 
d="M803 639l655 770v-1409h-196v901l-459 -534l-459 534v-901h-197v1409z" />
    <glyph glyph-name="j.ss01" horiz-adv-x="491" 
d="M246 1147q-62 0 -105 43t-43 104q0 62 43 105t105 43q61 0 104 -43t43 -105t-42.5 -104.5t-104.5 -42.5zM147 -524v1507h197v-1507h-197z" />
    <glyph glyph-name="t.ss01" horiz-adv-x="720" 
d="M213 0v786h-131v197h131v393h197v-393h196v-197h-196v-786h-197z" />
    <glyph glyph-name="tbar.ss01" horiz-adv-x="720" 
d="M606 786h-196v-180h196v-98h-196v-508h-197v508h-131v98h131v180h-131v197h131v393h197v-393h196v-197z" />
    <glyph glyph-name="tcaron.ss01" horiz-adv-x="1015" 
d="M213 0v786h-131v197h131v393h197v-393h196v-197h-196v-786h-197zM672 1114l65 262h197l-164 -262h-98z" />
    <glyph glyph-name="uni0163.ss01" horiz-adv-x="720" 
d="M410 0l-105 -98q115 26 200 -44t85 -186q0 -126 -88 -210.5t-221 -84.5q-163 0 -248 129l98 93q52 -91 164 -91q78 0 129 47.5t51 118.5q0 61 -42.5 103.5t-104.5 42.5q-78 0 -138 -49l-65 98l135 131h-47v786h-131v197h131v393h197v-393h196v-197h-196v-786z" />
    <glyph glyph-name="uni021B.ss01" horiz-adv-x="720" 
d="M213 0v786h-131v197h131v393h197v-393h196v-197h-196v-786h-197zM147 -393l66 262h197l-164 -262h-99z" />
    <glyph glyph-name="f_f.dlig" horiz-adv-x="1507" 
d="M1294 1262q-131 0 -131 -166v-113h230v-197h-230v-786h-196v786h-557v-786h-197v786h-131v197h131v119q0 174 81.5 265t217.5 91q74 0 127 -33v-192q-45 29 -98 29q-131 0 -131 -166v-113h557v119q0 174 81.5 265t217.5 91q74 0 127 -33v-192q-45 29 -99 29z" />
    <glyph glyph-name="f_f_i.dlig" horiz-adv-x="1998" 
d="M1851 983v-983h-196v786h-492v-786h-196v786h-557v-786h-197v786h-131v197h131v119q0 174 81.5 265t217.5 91q74 0 127 -33v-192q-45 29 -98 29q-131 0 -131 -166v-113h557v119q0 174 81.5 265t217.5 91q74 0 127 -33v-192q-45 29 -99 29q-131 0 -131 -166v-113h688z" />
    <glyph glyph-name="f_f_j.dlig" horiz-adv-x="1998" 
d="M1851 983v-1020q0 -92 -14.5 -167t-35 -124.5t-54.5 -87.5t-62.5 -59t-70 -36t-65 -20t-58.5 -10l-49 181q48 10 83.5 27.5t66.5 50t47 86.5t16 130v852h-492v-786h-196v786h-557v-786h-197v786h-131v197h131v119q0 174 81.5 265t217.5 91q74 0 127 -33v-192
q-45 29 -98 29q-131 0 -131 -166v-113h557v119q0 174 81.5 265t217.5 91q74 0 127 -33v-192q-45 29 -99 29q-131 0 -131 -166v-113h688z" />
    <glyph glyph-name="uni041C.ss01" horiz-adv-x="1605" 
d="M803 639l655 770v-1409h-196v901l-459 -534l-459 534v-901h-197v1409z" />
    <glyph glyph-name="uni043C.ss01" horiz-adv-x="1310" 
d="M1163 1016v-1016h-196v508l-312 -361l-311 361v-508h-197v1016l508 -590z" />
    <glyph glyph-name="uni0458.ss01" horiz-adv-x="491" 
d="M246 1147q-62 0 -105 43t-43 104q0 62 43 105t105 43q61 0 104 -43t43 -105t-42.5 -104.5t-104.5 -42.5zM147 -524v1507h197v-1507h-197z" />
    <glyph glyph-name="zero.subs" horiz-adv-x="737" 
d="M369 156q112 0 183 -102t71 -251t-71 -250.5t-183 -101.5t-183 101.5t-71 250.5t71 251t183 102zM369 -451q64 0 109.5 74.5t45.5 179.5q0 106 -45 180t-110 74t-110.5 -74t-45.5 -180q0 -104 46 -179t110 -75z" />
    <glyph glyph-name="one.subs" horiz-adv-x="671" 
d="M213 90l213 74v-705h-98v578l-115 -37v90z" />
    <glyph glyph-name="two.subs" horiz-adv-x="737" 
d="M131 -57q6 88 67.5 150.5t161.5 62.5q99 0 164.5 -62.5t65.5 -159.5q0 -63 -36.5 -119t-117.5 -143l-106 -114h293v-99h-508l252 277q44 49 63 71.5t40.5 58.5t21.5 62q0 58 -36.5 93.5t-95.5 35.5q-56 0 -91 -37t-38 -94z" />
    <glyph glyph-name="three.subs" horiz-adv-x="720" 
d="M508 -176q40 -14 69 -57t29 -95q0 -88 -61 -154.5t-185 -66.5q-108 0 -172.5 60.5t-72.5 160.5l98 17q18 -140 154 -140q65 0 103 33.5t38 81.5q0 58 -45.5 78t-134.5 20v99q164 6 164 98q0 38 -32.5 68t-92.5 30q-126 0 -138 -131l-98 17q8 93 71.5 153t157.5 60
q57 0 103 -18.5t72.5 -47t40.5 -60.5t14 -63q0 -96 -82 -143z" />
    <glyph glyph-name="four.subs" horiz-adv-x="704" 
d="M508 -328h82v-98h-82v-115h-98v115h-361l459 590v-492zM410 -328v228l-166 -228h166z" />
    <glyph glyph-name="five.subs" horiz-adv-x="720" 
d="M383 -82q89 0 156 -61t67 -164q0 -105 -72.5 -173.5t-173.5 -68.5q-100 0 -169.5 62t-75.5 151l102 10q5 -50 45 -87.5t98 -37.5q60 0 104 41t44 99q0 59 -36 95t-95 36q-42 0 -83 -21.5t-63 -60.5h-100l62 409h348v-98h-265l-26 -176q54 45 133 45z" />
    <glyph glyph-name="six.subs" horiz-adv-x="737" 
d="M389 -59q103 0 168.5 -68t65.5 -162q0 -115 -71.5 -187.5t-182.5 -72.5q-112 0 -183 73t-71 193q0 115 60.5 234.5t180.5 195.5h174q-8 -2 -21 -7.5t-49.5 -25.5t-69 -44t-69.5 -66.5t-61 -91.5q53 29 129 29zM369 -451q68 0 111.5 43.5t43.5 106.5t-42 103t-113 40
q-67 0 -111.5 -40.5t-44.5 -102.5t44.5 -106t111.5 -44z" />
    <glyph glyph-name="seven.subs" horiz-adv-x="688" 
d="M147 147h492l-295 -688h-115l254 590h-336v98z" />
    <glyph glyph-name="eight.subs" horiz-adv-x="737" 
d="M530 -162q44 -26 68.5 -69.5t24.5 -96.5q0 -98 -73.5 -159.5t-180.5 -61.5t-180.5 61.5t-73.5 159.5q0 108 92 166q-60 42 -60 125t64.5 138t157.5 55t157 -55t64 -138t-60 -125zM369 57q-51 0 -87 -26.5t-36 -63.5q0 -36 36.5 -63t86.5 -27q52 0 87.5 27t35.5 63
q0 37 -35.5 63.5t-87.5 26.5zM369 -451q65 0 110 34t45 85t-45 85t-110 34t-110.5 -34t-45.5 -85t45.5 -85t110.5 -34z" />
    <glyph glyph-name="nine.subs" horiz-adv-x="737" 
d="M350 -334q-103 0 -169 68.5t-66 163.5q0 115 71.5 186.5t182.5 71.5q114 0 184 -72.5t70 -194.5q0 -114 -60.5 -233t-179.5 -197h-174q8 3 21 8t49.5 25t69 45t69.5 68t61 92q-57 -31 -129 -31zM369 57q-67 0 -111.5 -42.5t-44.5 -104.5q0 -63 42.5 -104.5t113.5 -41.5
q68 0 111.5 42t43.5 104t-43.5 104.5t-111.5 42.5z" />
    <glyph glyph-name="zero.tf" 
d="M623 1393q147 0 264 -95t180 -255.5t63 -354.5t-63 -354t-180 -255t-264 -95q-149 0 -266 95t-179.5 255t-62.5 354t63 354.5t180 255.5t265 95zM623 180q85 0 156.5 68t113 185t41.5 255t-41.5 255t-113 185t-156.5 68t-156.5 -68t-113.5 -185t-42 -255t42 -255
t113.5 -185t156.5 -68z" />
    <glyph glyph-name="one.tf" 
d="M377 1262l426 147v-1409h-197v1155l-229 -74v181z" />
    <glyph glyph-name="two.tf" 
d="M145 967q6 83 40 159t90.5 136t142.5 95.5t188 35.5q198 0 328.5 -124.5t130.5 -318.5q0 -54 -15.5 -107.5t-39 -99.5t-66 -102.5t-82.5 -102t-104 -112.5l-215 -229h587v-197h-1015l503 553q65 71 95.5 106.5t74 92.5t62 101.5t18.5 84.5q0 117 -72.5 187.5t-189.5 70.5
q-112 0 -182 -74.5t-78 -187.5z" />
    <glyph glyph-name="three.tf" 
d="M918 727q79 -27 137.5 -113t58.5 -188q0 -64 -16.5 -125t-54 -119t-92.5 -101.5t-139.5 -70t-188.5 -26.5q-219 0 -348.5 120.5t-143.5 321.5l197 33q15 -126 88 -202.5t219 -76.5q131 0 207 66t76 164q0 49 -18 84.5t-48 57t-78 34t-98.5 16.5t-118.5 4v197
q41 1 80.5 5.5t86 17.5t81 33.5t57.5 56.5t23 83q0 76 -65 136.5t-185 60.5q-61 0 -108.5 -15t-76.5 -39t-49 -59.5t-29 -70.5t-14 -78l-196 33q15 186 143.5 306t317.5 120q92 0 170 -24.5t129.5 -64t88.5 -89.5t53.5 -100.5t16.5 -98.5q0 -193 -163 -289z" />
    <glyph glyph-name="four.tf" 
d="M967 426h163v-197h-163v-229h-197v229h-721l918 1180v-983zM770 426v455l-332 -455h332z" />
    <glyph glyph-name="five.tf" 
d="M666 918q85 0 164.5 -30t143 -86t102 -143.5t38.5 -193.5q0 -139 -68 -250t-180 -171t-243 -60q-201 0 -340.5 124t-151.5 302l205 20q9 -100 89.5 -175t197.5 -75q120 0 207.5 81t87.5 198q0 116 -74 189t-191 73q-84 0 -165.5 -43t-125.5 -121h-200l123 819h698v-196
h-530l-54 -353q51 42 125 66.5t142 24.5z" />
    <glyph glyph-name="six.tf" 
d="M662 963q137 0 245.5 -64.5t165.5 -169t57 -227.5q0 -229 -142.5 -373.5t-364.5 -144.5q-225 0 -366.5 145t-141.5 387q0 107 28 220.5t83.5 229t151 223.5t218.5 187h348q-8 -3 -21.5 -8t-55.5 -24.5t-83 -43t-97 -64t-104 -86.5t-97 -111t-83 -136q107 60 259 60z
M623 180q135 0 223 86t88 211q0 126 -84.5 207.5t-226.5 81.5q-136 0 -224 -82.5t-88 -206.5q0 -125 88.5 -211t223.5 -86z" />
    <glyph glyph-name="seven.tf" 
d="M147 1376h983l-589 -1376h-230l508 1180h-672v196z" />
    <glyph glyph-name="eight.tf" 
d="M944 756q90 -52 138 -138.5t48 -193.5q0 -195 -146.5 -317.5t-360.5 -122.5t-361 122.5t-147 317.5q0 106 47.5 192t136.5 140q-59 41 -89 108t-30 144q0 108 59 197t160.5 138.5t223.5 49.5q185 0 313.5 -110.5t128.5 -274.5q0 -76 -30.5 -142.5t-90.5 -109.5zM623 1196
q-102 0 -174 -53.5t-72 -126.5t72 -126.5t174 -53.5t173.5 53.5t71.5 126.5t-71.5 126.5t-173.5 53.5zM623 180q130 0 220.5 68.5t90.5 169.5t-90.5 169t-220.5 68t-221 -68.5t-91 -168.5q0 -101 91 -169.5t221 -68.5z" />
    <glyph glyph-name="nine.tf" 
d="M584 414q-137 0 -246 64.5t-166 168.5t-57 227q0 229 143 374t365 145q225 0 366 -145.5t141 -387.5q0 -107 -28 -220.5t-83.5 -229t-151 -223.5t-218.5 -187h-348q8 3 21.5 8t55.5 24.5t83 43t97 64t104 86.5t97 111t83 136q-54 -30 -112 -44.5t-146 -14.5zM623 1196
q-135 0 -223.5 -86t-88.5 -211q0 -126 85 -207.5t227 -81.5q136 0 223.5 82.5t87.5 206.5q0 125 -88 211t-223 86z" />
    <glyph glyph-name="zero.zero" 
d="M623 1393q147 0 264 -95t180 -255.5t63 -354.5t-63 -354t-180 -255t-264 -95q-149 0 -266 95t-179.5 255t-62.5 354t63 354.5t180 255.5t265 95zM623 1196q-85 0 -156.5 -68t-113.5 -185t-42 -255q0 -112 33 -227l500 583q-42 71 -99.5 111.5t-121.5 40.5zM623 180
q85 0 156.5 68t113 185t41.5 255q0 111 -33 227l-500 -583q42 -72 99.5 -112t122.5 -40z" />
    <glyph glyph-name="zero.tf.zero" 
d="M623 1393q147 0 264 -95t180 -255.5t63 -354.5t-63 -354t-180 -255t-264 -95q-149 0 -266 95t-179.5 255t-62.5 354t63 354.5t180 255.5t265 95zM623 1196q-85 0 -156.5 -68t-113.5 -185t-42 -255q0 -112 33 -227l500 583q-42 71 -99.5 111.5t-121.5 40.5zM623 180
q85 0 156.5 68t113 185t41.5 255q0 111 -33 227l-500 -583q42 -72 99.5 -112t122.5 -40z" />
    <glyph glyph-name="zero.dnom" horiz-adv-x="737" 
d="M369 696q112 0 183 -101.5t71 -250.5t-71 -250.5t-183 -101.5t-183 101.5t-71 250.5t71 250.5t183 101.5zM369 90q64 0 109.5 74.5t45.5 179.5q0 106 -45 180t-110 74t-110.5 -74t-45.5 -180q0 -104 46 -179t110 -75z" />
    <glyph glyph-name="one.dnom" horiz-adv-x="671" 
d="M213 631l213 74v-705h-98v578l-115 -37v90z" />
    <glyph glyph-name="two.dnom" horiz-adv-x="737" 
d="M131 483q6 88 67.5 150.5t161.5 62.5q99 0 164.5 -62t65.5 -159q0 -63 -36.5 -119t-117.5 -143l-106 -115h293v-98h-508l252 276q43 48 63 72t41 59.5t21 61.5q0 58 -36.5 93.5t-95.5 35.5q-56 0 -91 -37t-38 -94z" />
    <glyph glyph-name="three.dnom" horiz-adv-x="720" 
d="M508 365q40 -14 69 -57t29 -95q0 -88 -61 -154.5t-185 -66.5q-108 0 -172.5 60.5t-72.5 160.5l98 16q18 -139 154 -139q65 0 103 33.5t38 81.5q0 58 -45.5 78t-134.5 20v98q27 1 51.5 5t52 14t44 30.5t16.5 49.5q0 38 -32.5 68t-92.5 30q-126 0 -138 -131l-98 16
q8 93 71.5 153t157.5 60q57 0 103 -18t72.5 -47t40.5 -60.5t14 -62.5q0 -96 -82 -143z" />
    <glyph glyph-name="four.dnom" horiz-adv-x="704" 
d="M508 213h82v-98h-82v-115h-98v115h-361l459 590v-492zM410 213v227l-166 -227h166z" />
    <glyph glyph-name="five.dnom" horiz-adv-x="720" 
d="M383 459q89 0 156 -61.5t67 -164.5q0 -105 -72.5 -173t-173.5 -68q-100 0 -169.5 62t-75.5 151l102 10q5 -50 45 -87.5t98 -37.5q61 0 104.5 40.5t43.5 98.5q0 59 -36 95t-95 36q-43 0 -83.5 -21t-62.5 -60h-100l62 409h348v-98h-265l-26 -176q54 45 133 45z" />
    <glyph glyph-name="six.dnom" horiz-adv-x="737" 
d="M389 481q103 0 168.5 -67.5t65.5 -161.5q0 -115 -71.5 -187.5t-182.5 -72.5q-112 0 -183 73t-71 193q0 115 60.5 234.5t180.5 195.5h174q-8 -2 -21 -7.5t-49.5 -25.5t-69 -44t-69.5 -66.5t-61 -91.5q51 28 129 28zM369 90q68 0 111.5 43.5t43.5 106.5t-42 103t-113 40
q-67 0 -111.5 -40.5t-44.5 -102.5t44.5 -106t111.5 -44z" />
    <glyph glyph-name="seven.dnom" horiz-adv-x="688" 
d="M147 688h492l-295 -688h-115l254 590h-336v98z" />
    <glyph glyph-name="eight.dnom" horiz-adv-x="737" 
d="M530 379q44 -26 68.5 -69.5t24.5 -96.5q0 -98 -73.5 -159.5t-180.5 -61.5t-180.5 61.5t-73.5 159.5q0 108 92 166q-60 42 -60 125q0 82 64.5 137t157.5 55t157 -54.5t64 -137.5t-60 -125zM369 598q-51 0 -87 -26.5t-36 -63.5q0 -36 36.5 -63t86.5 -27q52 0 87.5 27
t35.5 63q0 37 -35.5 63.5t-87.5 26.5zM369 90q65 0 110 34t45 85t-45 85t-110 34t-110.5 -34t-45.5 -85t45.5 -85t110.5 -34z" />
    <glyph glyph-name="nine.dnom" horiz-adv-x="737" 
d="M350 207q-103 0 -169 68t-66 163q0 115 71.5 186.5t182.5 71.5q114 0 184 -72t70 -194q0 -114 -60.5 -233t-179.5 -197h-174q8 3 21 8t49.5 25t69 45t69.5 68t61 92q-57 -31 -129 -31zM369 598q-67 0 -111.5 -42.5t-44.5 -104.5q0 -63 42.5 -104.5t113.5 -41.5
q68 0 111.5 42t43.5 104t-43.5 104.5t-111.5 42.5z" />
    <glyph glyph-name="zero.numr" horiz-adv-x="737" 
d="M369 1384q112 0 183 -101.5t71 -250.5t-71 -250.5t-183 -101.5t-183 101.5t-71 250.5t71 250.5t183 101.5zM369 778q64 0 109.5 74.5t45.5 179.5q0 106 -45 180t-110 74t-110.5 -74t-45.5 -180q0 -104 46 -179t110 -75z" />
    <glyph glyph-name="one.numr" horiz-adv-x="671" 
d="M213 1319l213 74v-705h-98v578l-115 -37v90z" />
    <glyph glyph-name="two.numr" horiz-adv-x="737" 
d="M131 1171q6 88 67.5 150.5t161.5 62.5q99 0 164.5 -62t65.5 -159q0 -63 -36.5 -119t-117.5 -143l-106 -115h293v-98h-508l252 277q44 49 63 71.5t40.5 58.5t21.5 62q0 58 -36.5 93.5t-95.5 35.5q-56 0 -91 -37t-38 -94z" />
    <glyph glyph-name="three.numr" horiz-adv-x="720" 
d="M508 1053q40 -14 69 -57t29 -95q0 -88 -61 -154.5t-185 -66.5q-108 0 -172.5 60.5t-72.5 160.5l98 17q18 -140 154 -140q65 0 103 33.5t38 81.5q0 58 -45.5 78t-134.5 20v99q164 6 164 98q0 38 -32.5 68t-92.5 30q-126 0 -138 -131l-98 16q8 93 71.5 153t157.5 60
q57 0 103 -18t72.5 -47t40.5 -60.5t14 -62.5q0 -96 -82 -143z" />
    <glyph glyph-name="four.numr" horiz-adv-x="704" 
d="M508 901h82v-98h-82v-115h-98v115h-361l459 590v-492zM410 901v227l-166 -227h166z" />
    <glyph glyph-name="five.numr" horiz-adv-x="720" 
d="M383 1147q89 0 156 -61t67 -164q0 -105 -72.5 -173.5t-173.5 -68.5q-100 0 -169.5 62t-75.5 151l102 10q5 -50 45 -87.5t98 -37.5q60 0 104 41t44 99t-36 94.5t-95 36.5q-42 0 -83 -21.5t-63 -60.5h-100l62 409h348v-98h-265l-26 -176q54 45 133 45z" />
    <glyph glyph-name="six.numr" horiz-adv-x="737" 
d="M389 1169q103 0 168.5 -67.5t65.5 -161.5q0 -115 -71.5 -187.5t-182.5 -72.5q-112 0 -183 73t-71 193q0 115 60.5 234.5t180.5 195.5h174q-8 -2 -21 -7.5t-49.5 -25.5t-69 -44t-69.5 -66.5t-61 -91.5q51 28 129 28zM369 778q68 0 111.5 43.5t43.5 106.5t-42 103t-113 40
q-67 0 -111.5 -40.5t-44.5 -102.5t44.5 -106t111.5 -44z" />
    <glyph glyph-name="seven.numr" horiz-adv-x="688" 
d="M147 1376h492l-295 -688h-115l254 590h-336v98z" />
    <glyph glyph-name="eight.numr" horiz-adv-x="737" 
d="M530 1067q44 -26 68.5 -69.5t24.5 -96.5q0 -98 -73.5 -159.5t-180.5 -61.5t-180.5 61.5t-73.5 159.5q0 108 92 166q-60 42 -60 125q0 82 64.5 137t157.5 55t157 -54.5t64 -137.5t-60 -125zM369 1286q-51 0 -87 -26.5t-36 -63.5q0 -36 36.5 -63t86.5 -27q52 0 87.5 27
t35.5 63q0 37 -35.5 63.5t-87.5 26.5zM369 778q65 0 110 34t45 85t-45 85t-110 34t-110.5 -34t-45.5 -85t45.5 -85t110.5 -34z" />
    <glyph glyph-name="nine.numr" horiz-adv-x="737" 
d="M350 895q-103 0 -169 68t-66 163q0 115 71.5 186.5t182.5 71.5q114 0 184 -72t70 -194q0 -114 -60.5 -233t-179.5 -197h-174q8 3 21 8t49.5 25t69 45t69.5 68t61 92q-57 -31 -129 -31zM369 1286q-67 0 -111.5 -42.5t-44.5 -104.5q0 -63 42.5 -104.5t113.5 -41.5
q68 0 111.5 42t43.5 104t-43.5 104.5t-111.5 42.5z" />
    <glyph glyph-name="exclam.case" horiz-adv-x="589" 
d="M229 393l-65 983h262l-66 -983h-131zM295 -16q-62 0 -105 43t-43 104t43.5 104.5t104.5 43.5q63 0 105 -43t42 -105t-42 -104.5t-105 -42.5z" />
    <glyph glyph-name="exclamdown.case" horiz-adv-x="589" 
d="M295 1393q63 0 105 -43t42 -105t-42 -104.5t-105 -42.5q-62 0 -105 43t-43 104t43.5 104.5t104.5 43.5zM229 983h131l66 -983h-262z" />
    <glyph glyph-name="question.case" horiz-adv-x="1081" 
d="M524 1393q90 0 165.5 -24t126 -63.5t85.5 -91t50.5 -106t15.5 -109.5q0 -103 -47.5 -178.5t-145.5 -156.5q-78 -64 -114 -127.5t-37 -143.5h-197q-3 77 26 163t99 159q23 24 70.5 66t74.5 68.5t50.5 67.5t23.5 82q0 85 -64.5 141t-179.5 56q-106 0 -180 -47t-117 -113
l-114 160q177 197 409 197zM524 279q63 0 105.5 -43t42.5 -105t-42.5 -104.5t-105.5 -42.5q-62 0 -104.5 43t-42.5 104q0 62 43 105t104 43z" />
    <glyph glyph-name="questiondown.case" horiz-adv-x="1081" 
d="M557 1098q-63 0 -105 42.5t-42 104.5t42 105t105 43q61 0 104.5 -43.5t43.5 -104.5t-43 -104t-105 -43zM557 -16q-112 0 -200 36t-139 94.5t-77 125.5t-26 137q0 104 47 180t145 156q78 64 114.5 127t37.5 143h196q3 -76 -26 -162t-99 -159q-23 -24 -70.5 -66.5
t-74.5 -69t-50.5 -67.5t-23.5 -82q0 -85 64.5 -141t179.5 -56q106 0 180 47t117 113l115 -160q-176 -196 -410 -196z" />
    <glyph glyph-name="braceleft.case" horiz-adv-x="786" 
d="M508 4q0 -79 41 -138.5t123 -78.5l-66 -180q-154 51 -224.5 144t-70.5 229v479q0 81 -64.5 146t-131.5 83q66 18 131 83.5t65 146.5v479q0 136 70.5 228.5t224.5 143.5l66 -180q-82 -19 -123 -78.5t-41 -138.5v-385q0 -240 -137 -299q137 -59 137 -299v-385z" />
    <glyph glyph-name="braceright.case" horiz-adv-x="786" 
d="M279 4v385q0 240 137 299q-137 59 -137 299v385q0 79 -41 138.5t-123 78.5l65 180q154 -51 224.5 -143.5t70.5 -228.5v-479q0 -81 65 -146.5t132 -83.5q-67 -18 -132 -83t-65 -146v-479q0 -136 -70.5 -229t-224.5 -144l-65 180q82 19 123 78.5t41 138.5z" />
    <glyph glyph-name="bracketleft.case" horiz-adv-x="688" 
d="M344 1556v-1736h197v-197h-394v2130h394v-197h-197z" />
    <glyph glyph-name="bracketright.case" horiz-adv-x="688" 
d="M344 1556h-197v197h394v-2130h-394v197h197v1736z" />
    <glyph glyph-name="parenleft.case" horiz-adv-x="622" 
d="M541 1548q-230 -366 -230 -860t230 -860l-164 -90q-120 185 -191 434t-71 516t71 516t191 434z" />
    <glyph glyph-name="parenright.case" horiz-adv-x="622" 
d="M82 1548l164 90q120 -185 191 -434t71 -516t-71 -516t-191 -434l-164 90q229 365 229 860t-229 860z" />
    <glyph glyph-name="emdash.case" 
d="M1130 606h-1015v164h1015v-164z" />
    <glyph glyph-name="endash.case" horiz-adv-x="1048" 
d="M934 606h-819v164h819v-164z" />
    <glyph glyph-name="hyphen.case" horiz-adv-x="786" 
d="M672 606h-557v164h557v-164z" />
    <glyph glyph-name="guillemotleft.case" horiz-adv-x="1277" 
d="M623 1130l-328 -442l328 -442h-181l-327 442l327 442h181zM1098 1130l-328 -442l328 -442h-180l-328 442l328 442h180z" />
    <glyph glyph-name="guillemotright.case" horiz-adv-x="1277" 
d="M180 1130h180l328 -442l-328 -442h-180l328 442zM655 1130h181l327 -442l-327 -442h-181l328 442z" />
    <glyph glyph-name="guilsinglleft.case" horiz-adv-x="802" 
d="M623 1130l-328 -442l328 -442h-181l-327 442l327 442h181z" />
    <glyph glyph-name="guilsinglright.case" horiz-adv-x="802" 
d="M180 1130h180l328 -442l-328 -442h-180l328 442z" />
    <glyph glyph-name="ampersand.ss01" horiz-adv-x="1509" 
d="M1141 350l254 -350h-244l-143 197q-98 -103 -210 -158t-253 -55q-194 0 -312 116.5t-118 298.5q0 159 120 278.5t310 153.5l-398 545h1049v-196h-659l487 -670l121 145h248zM549 180q184 0 344 174l-223 305q-63 -1 -124.5 -17.5t-115 -47.5t-86.5 -83.5t-33 -117.5
q0 -82 65.5 -147.5t172.5 -65.5z" />
    <glyph glyph-name="brevecy" horiz-adv-x="1327" 
 />
    </font>
</defs>
</svg>
